<?xml version="1.0" standalone="no"?>
<!DOCTYPE svg PUBLIC "-//W3C//DTD SVG 1.1//EN" "http://www.w3.org/Graphics/SVG/1.1/DTD/svg11.dtd" >
<svg xmlns="http://www.w3.org/2000/svg">
<metadata>Generated by IcoMoon</metadata>
<defs>
<font id="Electrician" horiz-adv-x="1024">
<font-face units-per-em="1024" ascent="960" descent="-64" />
<missing-glyph horiz-adv-x="1024" />
<glyph unicode="&#x20;" horiz-adv-x="512" d="" />
<glyph unicode="&#xe900;" glyph-name="light" d="M871.631 410.895l-111.862 493.287c-4.809 21.211-28.107 39.818-49.856 39.818h-395.826c-21.75 0-45.047-18.606-49.858-39.818l-111.864-493.287c-1.937-8.544-0.583-16.28 3.812-21.785s11.64-8.535 20.402-8.535h111.277v-83.977c-14.067-7.634-23.62-22.532-23.62-39.66 0-24.904 20.188-45.094 45.094-45.094s45.094 20.188 45.094 45.094c0 17.132-9.553 32.028-23.62 39.66v83.977h516.612c8.759 0 16.006 3.032 20.402 8.535 4.4 5.505 5.752 13.239 3.815 21.785zM700.417-5.055h-166.945v342.685h-42.945v-342.682h-166.945c-11.86 0-21.474-9.614-21.474-21.474s9.614-21.474 21.474-21.474h376.837c11.858 0 21.474 9.614 21.474 21.474 0 11.858-9.616 21.471-21.474 21.471z" />
<glyph unicode="&#xe901;" glyph-name="air-conditioner" d="M846.82 806.736h127.549c8.801 0 15.943 7.128 15.943 15.943s-7.142 15.943-15.943 15.943h-127.549c-29.622 0-54.386-20.409-61.511-47.832h-32.717c7.622 45.17 46.906 79.719 94.228 79.719h111.607c8.801 0 15.943 7.128 15.943 15.943s-7.142 15.943-15.943 15.943h-111.607c-64.923 0-118.56-48.788-126.452-111.607h-686.684v-797.193h956.632v797.193h-170.949c5.534 9.487 15.705 15.943 27.457 15.943zM209.065 619.54c14.635 14.382 30.659 27.328 47.832 38.697v-532.077c-17.173 11.369-33.197 24.315-47.832 38.697v454.687zM288.787 676.572c15.321 7.763 31.217 14.558 47.832 19.801v-608.339c-16.614 5.23-32.511 12.037-47.832 19.801v568.733zM368.504 704.65c15.531 3.155 31.568 4.814 47.832 5.611v-636.13c-16.264 0.814-32.301 2.456-47.832 5.611v624.903zM448.225 710.262c16.264-0.814 32.301-2.456 47.832-5.611v-624.903c-15.531-3.155-31.568-4.814-47.832-5.611v636.13zM527.943 696.373c16.614-5.23 32.511-12.037 47.832-19.801v-568.75c-15.321-7.763-31.217-14.558-47.832-19.801v608.356zM607.664 658.237c17.173-11.369 33.197-24.315 47.832-38.697v-454.687c-14.635-14.382-30.659-27.328-47.832-38.697v532.077zM687.381 582.708c39.859-53.238 63.775-119.053 63.775-190.514s-23.916-137.293-63.775-190.514v381.027zM177.18 582.708v-381.027c-39.859 53.221-63.775 119.053-63.775 190.514s23.916 137.293 63.775 190.514zM926.541 57.375h-223.213v95.664h223.213v-95.664z" />
<glyph unicode="&#xe902;" glyph-name="security-camera" horiz-adv-x="1152" d="M140.852 529.485l-31.802-10.642c0 0-5.478-2.629-8.007 4.921-2.952 8.813-11.802 35.262-11.802 35.262-5.056 15.1-21.543 23.32-36.645 18.267l-29.285-9.804c-15.097-5.052-23.317-21.543-18.264-36.641l82.411-246.718c5.052-15.097 21.543-23.317 36.645-18.264l29.282 9.801c15.1 5.056 23.32 21.547 18.267 36.645 0 0-8.841 26.409-11.789 35.216-2.179 6.518 3.414 8.801 3.414 8.801l31.802 10.642c24.163 8.085 37.313 34.466 29.226 58.629l-24.824 74.665c-8.085 24.161-34.466 37.31-58.629 29.223zM966.591 563.505l-115.285 337.268c-7.363 19.555-34.456 27.622-60.201 17.923l-663.983-249.388c-25.746-9.694-48.2-38.404-33.424-53.179 4.627-4.627 47.23-11.602 99.165-11.955 4.199-0.031 11.984 0.231 15.87-9.241l85.669-256.419c8.65-25.842 39.874-38.896 69.39-29.020l564.858 189.065c29.52 9.883 46.593 39.104 37.941 64.948zM1123.447 268.991h-16.685c-15.704 0-28.556-12.849-28.556-28.56v-92.869c-0.197 0.003 0.269-1.641-1.754-1.641h-216.892c-3.78 0-3.039-2.56-2.802-3.858 0.904-5.005 1.382-10.151 1.382-15.413 0-19.38-6.362-37.304-17.092-51.798-0.682-0.922-1.945-2.723 2.095-2.723h233.241c1.332 0 1.817-0.409 1.817-1.354v-74.614c0-15.704 12.846-28.556 28.556-28.556h16.685c15.7 0 28.556 12.846 28.556 28.556v244.276c0.007 15.7-12.846 28.553-28.55 28.553zM734.097 343.505c-4.846 14.934-21.038 23.198-35.975 18.348l-15.866-5.146c-14.941-4.846-23.198-21.038-18.352-35.972l42.206-130.12c1.66-2.735 3.549-1.719 4.718-0.612 15.657 14.841 36.778 23.967 59.995 23.967 1.798 0 5.24 0.29 4.612 2.097l-41.337 127.437zM829.643 126.647c0-32.484-26.333-58.816-58.816-58.816s-58.816 26.333-58.816 58.816c0 32.484 26.333 58.816 58.816 58.816s58.816-26.333 58.816-58.816z" />
<glyph unicode="&#xe903;" glyph-name="tool" d="M193.941 732.947c-7.103-8.196-6.211-20.618 1.988-27.729 3.712-3.225 8.294-4.801 12.849-4.801 5.5 0 10.99 2.302 14.861 6.774 3.051 3.523 73.955 86.828 20.195 154.492-29.823 37.543-7.784 59.367-2.994 63.435 8.343 6.778 9.693 19.046 2.975 27.483-6.767 8.483-19.129 9.867-27.623 3.119-20.599-16.414-47.791-62.297-3.149-118.492 33.475-42.102-18.592-103.684-19.102-104.281zM365.944 732.947c-7.103-8.196-6.211-20.618 1.985-27.729 3.712-3.225 8.294-4.801 12.853-4.801 5.5 0 10.99 2.302 14.857 6.774 3.055 3.523 73.955 86.828 20.195 154.492-29.823 37.543-7.784 59.367-2.994 63.435 8.343 6.778 9.693 19.046 2.975 27.483-6.767 8.483-19.129 9.867-27.623 3.119-20.599-16.414-47.791-62.297-3.149-118.492 33.479-42.102-18.592-103.684-19.098-104.281zM537.943 732.947c-7.103-8.196-6.211-20.618 1.988-27.729 3.712-3.225 8.302-4.801 12.849-4.801 5.508 0 11.001 2.302 14.861 6.774 3.051 3.523 73.963 86.828 20.195 154.492-29.812 37.543-7.776 59.367-2.994 63.435 8.351 6.778 9.693 19.046 2.975 27.483-6.759 8.483-19.121 9.867-27.627 3.119-20.595-16.414-47.791-62.297-3.149-118.492 33.483-42.102-18.588-103.684-19.098-104.281zM709.946 732.947c-7.103-8.196-6.222-20.618 1.996-27.729 3.705-3.225 8.29-4.801 12.842-4.801 5.508 0 10.997 2.302 14.857 6.774 3.055 3.523 73.963 86.828 20.199 154.492-29.816 37.543-7.776 59.367-2.998 63.435 8.351 6.778 9.693 19.046 2.975 27.483-6.756 8.483-19.121 9.867-27.623 3.119-20.599-16.414-47.784-62.297-3.149-118.492 33.483-42.102-18.599-103.684-19.098-104.281zM147.521-64c32.575 0 58.974 26.395 58.974 58.974v574.215c0 32.568-26.395 58.974-58.974 58.974-32.568 0-58.974-26.402-58.974-58.974v-574.219c0.004-32.557 26.41-58.97 58.974-58.97zM222.872 570.036v-574.219c0-32.579 26.406-58.974 58.97-58.974 32.579 0 58.974 26.391 58.974 58.974v574.219c0 32.568-26.395 58.974-58.974 58.974-32.568-0.004-58.97-26.406-58.97-58.974zM416.181-62.31c32.575 0 58.974 26.391 58.974 58.97v574.219c0 32.568-26.395 58.974-58.974 58.974-32.568 0-58.974-26.406-58.974-58.974v-574.223c0-32.553 26.406-58.966 58.974-58.966zM550.497-61.467c32.575 0 58.974 26.395 58.974 58.974v574.219c0 32.564-26.395 58.97-58.974 58.97-32.568 0-58.974-26.406-58.974-58.97v-574.223c0.004-32.575 26.406-58.97 58.974-58.97zM684.837-60.62c32.575 0 58.974 26.395 58.974 58.974v574.215c0 32.568-26.395 58.974-58.974 58.974-32.557 0-58.974-26.406-58.974-58.974v-574.219c0.004-32.575 26.417-58.97 58.974-58.97zM760.183 573.412v-574.219c0-32.575 26.395-58.974 58.974-58.974s58.974 26.395 58.974 58.974v382.668h9.005c26.686 0 48.317 33.728 48.317 75.354 0 41.618-21.635 75.347-48.317 75.347-3.070 0-6.067 0-9.005 0v40.851c0 32.568-26.395 58.974-58.974 58.974s-58.974-26.425-58.974-58.974z" />
<glyph unicode="&#xe904;" glyph-name="screwdriver" d="M50.784 116.067c-35.708-35.708-35.708-93.53 0-129.238 17.852-17.852 41.252-26.748 64.65-26.748s46.798 8.895 64.65 26.748l300.094 300.157-129.3 129.178-300.094-300.097zM800.808 672.263l130.701 67.576 68.426 132.285-63.796 63.796-132.224-68.488-67.697-130.579-158.972-159.154 64.468-64.59zM829.443 325.374l-12.309 1.219c-22.3 0-43.446-4.57-63.187-11.882l-375.165 375.225c7.312 19.74 11.882 40.887 11.882 63.187l-1.219 12.309c-6.458 95.116-84.817 170.492-181.58 170.492-28.151 0-54.536-6.885-78.36-18.279l121.439-121.439c6.398-6.398 10.785-13.952 13.71-21.935 7.981-21.568 3.656-46.798-13.71-64.223-11.882-11.882-27.479-17.852-43.080-17.852-7.189 0-14.319 1.583-21.144 4.143-7.981 3.047-15.537 7.312-21.935 13.77l-121.437 121.379c-11.395-23.823-18.279-50.209-18.279-78.36 0-96.761 75.373-175.122 170.492-181.58l12.309-1.219c22.3 0 43.446 4.57 63.187 11.819l375.103-375.165c-7.189-19.74-11.759-40.887-11.759-63.187l1.279-12.309c6.338-95.176 84.757-170.492 181.519-170.492 28.151 0 54.596 6.763 78.36 18.279l-121.439 121.439c-6.338 6.338-10.785 13.952-13.832 21.873-7.981 21.568-3.656 46.858 13.832 64.283 11.759 11.882 27.479 17.852 43.080 17.852 7.189 0 14.257-1.523 21.204-4.143 7.981-2.986 15.598-7.252 21.873-13.71l121.439-121.439c11.455 23.885 18.279 50.209 18.279 78.36-0.060 96.763-75.433 175.126-170.552 181.584z" />
<glyph unicode="&#xe905;" glyph-name="computer" d="M736.522 672.532h-449.050v-449.060h449.050v449.060zM665.17 320.998h-306.34v35.84h306.34v-35.84zM665.17 430.080h-306.34v35.84h306.34v-35.84zM665.17 539.162h-306.34v35.84h306.34v-35.84zM1023.995 663.434v59.991h-97.413v126.356c0 7.071-5.729 12.8-12.8 12.8h-126.356v97.418h-59.991v-97.418h-103.629v97.418h-59.991v-97.418h-103.629v97.418h-59.991v-97.418h-103.629v97.418h-59.991v-97.418h-126.362c-7.071 0-12.8-5.729-12.8-12.8v-126.351h-97.408v-59.996h97.408v-103.624h-97.408v-59.996h97.408v-103.624h-97.408v-59.996h97.408v-103.624h-97.408v-59.996h97.408v-126.351c0-7.071 5.729-12.8 12.8-12.8h126.362v-97.423h59.991v97.418h103.629v-97.418h59.991v97.418h103.629v-97.418h59.991v97.418h103.629v-97.418h59.991v97.418h126.356c7.071 0 12.8 5.729 12.8 12.8v126.351h97.413v59.996h-97.413v103.624h97.413v59.996h-97.413v103.629h97.413v59.991h-97.413v103.629h97.413zM811.976 148.029h-599.951v599.941h599.951v-599.941z" />
<glyph unicode="&#xe906;" glyph-name="check" d="M855.96 854.89l-477.696-477.696-210.22 210.22-168.044-168.048 378.264-378.255 645.736 645.736z" />
<glyph unicode="&#xe907;" glyph-name="circle" d="M512 960c-282.782 0-512-229.218-512-512s229.218-512 512-512c282.782 0 512 229.218 512 512s-229.218 512-512 512zM512 16c-238.594 0-432 193.406-432 432s193.406 432 432 432 432-193.406 432-432-193.406-432-432-432zM654.25 192.062c11.406-0.032 113.75 75.656 113.75 85.312s-114.532 81.81-124.438 81.81-43.156-39.876-52.124-44.31c-9-4.44-65-2.844-127.406 59.56-62.438 62.376-83.75 134.218-83.75 145.5s52.062 46.124 53.5 54.312c1.438 8.188-68.626 129.752-80 129.752s-97.782-104.998-97.782-113.748 7.906-121.312 150.438-263.812 236.406-134.314 247.812-134.376z" />
<glyph unicode="&#xe908;" glyph-name="facebook" d="M512 960c-282.316 0-512-229.684-512-512 0-282.295 229.684-512 512-512 282.295 0 512 229.705 512 512 0 282.316-229.664 512-512 512zM639.33 429.975h-83.298c0-133.084 0-296.896 0-296.896h-123.432c0 0 0 162.225 0 296.896h-58.674v104.933h58.674v67.872c0 48.61 23.098 124.566 124.566 124.566l91.465-0.351v-101.86c0 0-55.58 0-66.387 0s-26.171-5.403-26.171-28.584v-61.664h94.043l-10.786-104.912z" />
<glyph unicode="&#xe909;" glyph-name="favorite" d="M1024 562.95l-339.132 71.575-172.867 300.411-172.867-300.411-339.134-71.575 232.293-257.236-36.725-344.649 316.433 141.43 316.433-141.43-36.725 344.647 232.291 257.239zM512.001 172.277l-241.352-107.873 28.012 262.872-177.176 196.203 258.666 54.591 131.852 229.133 131.852-229.133 258.661-54.593-177.176-196.203 28.012-262.872-241.352 107.875z" />
<glyph unicode="&#xe90a;" glyph-name="google-plus" d="M443.406 363.155c-3.32 2.207-6.723 4.599-10.291 7.012-10.374 3.176-21.387 4.826-32.668 4.97h-1.361c-51.848 0-97.302-31.368-97.302-67.171 0-38.978 38.958-69.439 88.661-69.439 65.562 0 98.787 22.645 98.787 67.191 0 4.207-0.495 8.579-1.547 12.972-4.434 17.283-20.294 28.069-44.279 44.464zM406.676 499.023c0.041 0 0.041 0 0.041 0 12.395 0 22.851 4.888 30.956 14.168 12.704 14.478 18.334 38.236 14.993 63.459-5.878 45.083-38.112 82.618-71.749 83.587l-1.341 0.041c-11.9 0-22.521-4.908-30.585-14.148-12.518-14.292-17.819-36.937-14.54-62.118 5.898-45.042 38.814-83.958 71.749-84.99h0.474zM512 960c-282.316 0-512-229.684-512-512 0-282.295 229.684-512 512-512 282.295 0 512 229.705 512 512 0 282.316-229.664 512-512 512zM452.975 198.682c-19.345-5.589-40.278-8.414-62.242-8.414-24.46 0-47.97 2.805-69.893 8.353-42.423 10.704-73.77 30.997-88.413 57.148-6.311 11.302-9.507 23.346-9.507 35.823 0 12.848 3.073 25.883 9.136 38.793 23.243 49.538 84.515 82.865 152.387 82.865 0.681 0 1.32 0 1.939 0-5.506 9.714-8.167 19.778-8.167 30.358 0 5.259 0.701 10.621 2.104 16.086-71.192 1.609-124.463 53.745-124.463 122.483 0 48.527 38.793 95.817 94.27 114.914 16.602 5.733 33.534 8.662 50.177 8.662h152.243c5.177 0 9.776-3.362 11.384-8.291 1.609-4.908-0.165-10.312-4.352-13.343l-34.049-24.645c-2.042-1.444-4.496-2.227-7.033-2.227h-12.189c15.736-18.871 24.954-45.784 24.954-75.998 0-33.348-16.87-64.882-47.579-88.908-23.717-18.479-24.645-23.573-24.645-34.111 0.289-5.795 16.808-24.707 35.039-37.597 42.464-30.028 58.262-59.499 58.262-108.665-0.021-51.373-39.020-95.755-99.364-113.285zM796.79 459.817c0-6.6-5.383-11.962-11.962-11.962h-86.516v-86.557c0-6.6-5.383-11.962-11.92-11.962h-24.645c-6.641 0-12.003 5.362-12.003 11.962v86.557h-86.454c-6.6 0-11.962 5.321-11.962 11.962v24.604c0 6.6 5.362 12.003 11.962 12.003h86.454v86.475c0 6.62 5.362 11.962 12.003 11.962h24.645c6.538 0 11.92-5.341 11.92-11.962v-86.475h86.495c6.579 0 11.962-5.362 11.962-11.962v-24.645z" />
<glyph unicode="&#xe90b;" glyph-name="instagram" d="M511.979 345.501c56.488 0 102.54 45.97 102.54 102.499 0 22.315-7.301 42.918-19.386 59.746-18.623 25.821-48.898 42.753-83.092 42.753-34.214 0-64.469-16.911-83.133-42.732-12.127-16.829-19.366-37.432-19.386-59.746-0.062-56.529 45.949-102.52 102.458-102.52zM735.807 573.391v98.704l-98.725-0.309 0.33-98.725zM512 960c-282.316 0-512-229.684-512-512 0-282.295 229.684-512 512-512 282.295 0 512 229.705 512 512 0 282.316-229.664 512-512 512zM803.184 507.746v-238.408c0-62.097-50.486-112.563-112.543-112.563h-357.282c-62.077 0-112.543 50.466-112.543 112.563v357.282c0 62.077 50.466 112.543 112.543 112.543h357.262c62.077 0 112.563-50.466 112.563-112.543v-118.874zM671.276 448c0-87.794-71.44-159.276-159.276-159.276s-159.255 71.481-159.255 159.276c0 21.119 4.207 41.309 11.714 59.746h-86.928v-238.408c0-30.812 25.016-55.766 55.807-55.766h357.262c30.75 0 55.807 24.954 55.807 55.766v238.408h-86.969c7.569-18.437 11.838-38.628 11.838-59.746z" />
<glyph unicode="&#xe90c;" glyph-name="interface" d="M91.428 649.145h841.14c50.493 0 91.432 40.935 91.432 91.428s-40.935 91.428-91.432 91.428h-841.14c-50.493-0.004-91.428-40.935-91.428-91.432 0-50.493 40.935-91.424 91.428-91.424zM932.568 539.43h-841.14c-50.493 0-91.428-40.935-91.428-91.428 0-50.497 40.935-91.428 91.428-91.428h841.14c50.493 0 91.432 40.931 91.432 91.428 0 50.493-40.939 91.428-91.432 91.428zM932.568 246.859h-841.14c-50.493 0-91.428-40.931-91.428-91.428 0-50.493 40.935-91.428 91.428-91.428h841.14c50.493 0 91.432 40.935 91.432 91.428 0 50.497-40.939 91.428-91.432 91.428z" />
<glyph unicode="&#xe90d;" glyph-name="left-quote" d="M411.381 720.176c25.608 10.739 36.347 41.303 24.782 66.085l-40.477 85.085c-11.565 23.948-39.651 34.695-64.433 23.948-70.216-29.738-130.518-68.563-178.43-115.649-58.651-55.338-98.302-118.945-119.78-189.161-21.478-71.050-33.043-167.691-33.043-290.775v-253.602c0-27.26 22.304-49.564 49.564-49.564h324.644c27.26 0 49.564 22.304 49.564 49.564v324.644c0 27.268-22.304 49.564-49.564 49.564h-155.3c1.652 83.441 21.478 150.344 57.825 200.742 29.738 40.461 74.346 73.503 134.649 99.12zM994.584 720.176c25.608 10.739 36.339 41.303 24.782 66.085l-40.477 84.25c-11.565 23.956-39.651 34.695-64.433 23.956-69.39-29.738-128.875-68.563-177.604-114.823-58.659-56.173-99.128-119.78-120.614-189.995-21.478-69.381-32.208-166.039-32.208-289.949v-253.602c0-27.26 22.304-49.564 49.564-49.564h324.644c27.26 0 49.564 22.304 49.564 49.564v324.644c0 27.268-22.304 49.564-49.564 49.564h-156.127c1.652 83.441 21.486 150.344 57.825 200.742 29.738 40.469 74.346 73.512 134.649 99.128z" />
<glyph unicode="&#xe90e;" glyph-name="lightning" d="M772.688 960l-585.669-582.243h217.231l-166.976-441.757 599.67 582.28h-217.268z" />
<glyph unicode="&#xe90f;" glyph-name="linkedin" d="M605.301 520.76c-43.825 0-63.397-24.088-74.348-41v35.143h-82.535c1.072-23.263 0-248.328 0-248.328h82.535v138.735c0 7.404 0.474 14.849 2.702 20.149 5.981 14.849 19.551 30.213 42.361 30.213 29.863 0 41.804-22.768 41.804-56.179v-132.857h82.556v142.406c-0.041 76.225-40.773 111.718-95.075 111.718zM530.891 478.894h-0.516c0.165 0.289 0.412 0.557 0.516 0.846v-0.846zM320.139 514.903h82.535v-248.328h-82.535v248.328zM512 960c-282.316 0-512-229.684-512-512 0-282.295 229.684-512 512-512 282.295 0 512 229.705 512 512 0 282.316-229.664 512-512 512zM783.509 216.418c0-21.778-18.066-39.391-40.402-39.391h-465.7c-22.273 0-40.36 17.613-40.36 39.391v471.124c0 21.758 18.087 39.391 40.36 39.391h465.7c22.315 0 40.402-17.654 40.402-39.391v-471.124zM361.964 634.622c-28.213 0-46.692-18.52-46.692-42.897 0-23.82 17.922-42.897 45.599-42.897h0.536c28.79 0 46.712 19.077 46.712 42.897-0.557 24.356-17.901 42.897-46.155 42.897z" />
<glyph unicode="&#xe910;" glyph-name="map-marker" d="M512 960c-212.059 0-384.001-171.942-384.001-384.001 0-86.375 28.499-166.003 76.629-230.194l307.374-409.807 307.372 409.807c48.134 64.19 76.629 143.817 76.629 230.194 0 212.059-171.942 384.001-384.003 384.001zM512 320.001c-141.375 0-255.998 114.619-255.998 255.998 0 141.375 114.623 256.002 255.998 256.002 141.379 0 255.998-114.627 255.998-256.002 0-141.381-114.617-255.998-255.998-255.998z" />
<glyph unicode="&#xe911;" glyph-name="right-quote-sign" d="M971.489 899.931h-319.266c-28.986 0-52.511-23.525-52.511-52.511v-319.266c0-28.987 23.525-52.511 52.511-52.511h152.807c-1.995-83.598-21.424-150.496-58.182-200.802-28.986-39.698-72.884-72.57-131.592-98.51-26.991-11.867-38.648-43.794-26.045-70.471l37.808-79.817c12.183-25.624 42.324-36.863 68.369-25.624 69.524 30.036 128.233 68.054 176.121 114.264 58.393 56.397 98.405 120.040 120.040 191.035s32.452 167.825 32.452 290.7v251.002c0 28.985-23.526 52.511-52.511 52.511zM111.361 0.629c68.684 29.931 127.076 67.948 175.281 114.054 58.917 56.397 99.141 119.83 120.775 190.299s32.451 167.615 32.451 291.435v251.002c0 28.986-23.524 52.511-52.511 52.511h-319.266c-28.986 0-52.511-23.525-52.511-52.511v-319.266c0-28.987 23.525-52.511 52.511-52.511h152.807c-1.995-83.598-21.424-150.496-58.182-200.802-28.986-39.698-72.885-72.57-131.592-98.51-26.991-11.867-38.648-43.794-26.045-70.471l37.703-79.606c12.184-25.624 42.535-36.968 68.58-25.624z" />
<glyph unicode="&#xe912;" glyph-name="technology" d="M512.013 728.643c-146.072 0-264.913-118.842-264.913-264.913 0-59.781 19.602-116.266 56.66-163.322 7.315-9.314 15.001-18.229 23.139-27.668l0.447-0.519c24.896-28.884 50.637-58.761 60.25-93.941 2.173-8.062 2.482-23.519 2.356-35.426v-20.237c0-18.52 15.015-33.534 33.534-33.534h175.595c18.52 0 33.534 15.015 33.534 33.534v20.474c-0.112 15.551 0.693 26.899 2.316 32.788 9.667 34.947 38.194 68.504 63.59 98.372l1.095 1.288c7.328 8.612 14.254 16.745 20.559 24.762 37.111 47.082 56.727 103.595 56.727 163.429-0.004 146.072-118.833 264.913-264.891 264.913zM667.475 341.785c-5.522-7.024-12.032-14.675-18.927-22.772l-1.35-1.587c-29.667-34.894-63.291-74.442-76.919-123.706-1.927-6.993-4.069-17.456-4.614-37.568h-108.705c-0.465 21.359-2.643 32.314-4.632 39.691-13.637 49.917-47.203 88.866-74.178 120.17l-0.452 0.528c-7.624 8.84-14.822 17.192-21.221 25.33-27.677 35.144-42.307 77.286-42.307 121.86 0 109.090 88.755 197.845 197.845 197.845 109.076 0 197.818-88.755 197.818-197.845 0-44.623-14.639-86.778-42.356-121.945zM599.078 79.563h-175.591c-18.52 0-33.534-15.015-33.534-33.534s15.015-33.534 33.534-33.534h175.595c18.52 0 33.534 15.015 33.534 33.534s-15.019 33.534-33.539 33.534zM555.179 3.069h-87.793c-18.52 0-33.534-15.015-33.534-33.534s15.015-33.534 33.534-33.534h87.793c18.52 0 33.534 15.015 33.534 33.534s-15.015 33.534-33.534 33.534zM974.736 497.264h-115.685c-18.52 0-33.534-15.015-33.534-33.534s15.015-33.534 33.534-33.534h115.685c18.52 0 33.534 15.015 33.534 33.534s-15.015 33.534-33.534 33.534zM198.497 463.73c0 18.52-15.015 33.534-33.534 33.534h-115.698c-18.52 0-33.534-15.015-33.534-33.534s15.015-33.534 33.534-33.534h115.698c18.52 0 33.534 15.015 33.534 33.534zM512.004 777.21c18.52 0 33.534 15.015 33.534 33.534v115.721c0 18.52-15.015 33.534-33.534 33.534s-33.534-15.015-33.534-33.534v-115.721c0-18.52 15.015-33.534 33.534-33.534zM781.099 242.054c-13.096 13.096-34.326 13.101-47.427 0.004-13.096-13.096-13.101-34.326-0.004-47.427l81.806-81.829c6.55-6.55 15.131-9.823 23.716-9.823 8.58 0 17.161 3.273 23.711 9.819 13.096 13.096 13.101 34.326 0.004 47.427l-81.806 81.829zM242.866 685.429c6.55-6.55 15.131-9.828 23.716-9.828 8.58 0 17.161 3.273 23.707 9.819 13.101 13.096 13.101 34.326 0.009 47.422l-81.775 81.806c-13.096 13.101-34.326 13.101-47.422 0.009-13.101-13.096-13.101-34.326-0.009-47.422l81.775-81.806zM242.901 242.054l-81.811-81.829c-13.096-13.096-13.092-34.33 0.004-47.422 6.546-6.546 15.131-9.819 23.711-9.819s17.165 3.273 23.716 9.823l81.811 81.829c13.096 13.096 13.092 34.33-0.004 47.422s-34.33 13.092-47.427-0.004zM757.401 675.605c8.58 0 17.165 3.273 23.716 9.823l81.788 81.802c13.096 13.096 13.092 34.33-0.004 47.422-13.096 13.096-34.33 13.096-47.422-0.004l-81.788-81.802c-13.096-13.096-13.092-34.33 0.004-47.422 6.541-6.55 15.122-9.819 23.707-9.819z" />
<glyph unicode="&#xe913;" glyph-name="telephone" d="M981.96 188.572c-2.671 8.047-19.658 19.898-50.948 35.528-8.476 4.926-20.559 11.621-36.189 20.115-15.645 8.493-29.843 16.319-42.572 23.473-12.757 7.151-24.705 14.076-35.872 20.773-1.786 1.339-7.371 5.246-16.757 11.741-9.397 6.475-17.316 11.285-23.809 14.42-6.478 3.115-12.851 4.687-19.11 4.687-8.938 0-20.1-6.373-33.505-19.102-13.405-12.747-25.697-26.59-36.867-41.577-11.172-14.979-23.018-28.823-35.52-41.565-12.522-12.744-22.807-19.11-30.843-19.11-4.036 0-9.062 1.125-15.091 3.342-6.026 2.232-10.609 4.148-13.757 5.692-3.118 1.574-8.468 4.692-16.076 9.404-7.618 4.692-11.854 7.266-12.747 7.713-61.23 33.977-113.745 72.864-157.554 116.654-43.794 43.812-82.687 96.322-116.654 157.56-0.444 0.896-3.023 5.144-7.71 12.736-4.695 7.601-7.825 12.956-9.392 16.094-1.563 3.125-3.462 7.708-5.693 13.742s-3.35 11.060-3.35 15.084c0 8.042 6.371 18.324 19.11 30.841 12.736 12.509 26.595 24.358 41.565 35.525 14.979 11.167 28.823 23.46 41.565 36.865 12.736 13.412 19.105 24.577 19.105 33.517 0 6.253-1.563 12.629-4.69 19.107-3.128 6.493-7.935 14.418-14.418 23.806-6.486 9.386-10.397 14.966-11.739 16.765-6.696 11.167-13.617 23.12-20.778 35.859-7.162 12.736-14.974 26.933-23.47 42.575-8.488 15.635-15.191 27.705-20.11 36.196-15.635 31.282-27.476 48.274-35.525 50.946-3.131 1.339-7.825 2.018-14.076 2.018-12.073 0-27.825-2.23-47.269-6.705-19.447-4.467-34.752-9.157-45.93-14.078-22.347-9.381-46.037-36.645-71.066-81.781-22.796-42.006-34.19-83.58-34.19-124.695 0-12.060 0.783-23.791 2.345-35.196 1.563-11.397 4.358-24.248 8.386-38.556 4.021-14.303 7.264-24.927 9.713-31.841 2.452-6.924 7.037-19.322 13.742-37.207 6.696-17.88 10.723-28.823 12.065-32.846 15.642-43.807 34.19-82.912 55.643-117.327 35.296-57.207 83.458-116.33 144.466-177.343 61.011-61.008 120.121-109.173 177.333-144.479 34.415-21.447 73.535-39.995 117.33-55.65 4.026-1.332 14.969-5.35 32.841-12.071 17.88-6.7 30.287-11.285 37.207-13.742 6.927-2.46 17.552-5.705 31.839-9.733 14.318-4.029 27.162-6.82 38.556-8.399 11.405-1.544 23.138-2.337 35.196-2.337 41.113 0 82.69 11.405 124.703 34.193 45.131 25.024 72.387 48.713 81.774 71.079 4.934 11.165 9.611 26.47 14.078 45.922 4.483 19.44 6.708 35.191 6.708 47.261 0.015 6.279-0.661 10.961-2.008 14.119z" />
<glyph unicode="&#xe914;" glyph-name="tumblr" d="M512 960c-282.316 0-512-229.684-512-512 0-282.295 229.684-512 512-512 282.295 0 512 229.705 512 512 0 282.316-229.664 512-512 512zM685.093 203.962c-23.717-11.178-45.289-19.097-64.634-23.593-19.304-4.475-40.092-6.765-62.531-6.765-25.429 0-40.484 3.217-60.015 9.631-19.572 6.455-36.256 15.674-50.053 27.491-13.859 11.9-23.387 24.542-28.729 37.927-5.341 13.405-8.023 32.853-8.023 58.323v195.222h-75.647v78.864c21.861 7.094 47.207 17.262 62.778 30.523 15.633 13.302 28.151 29.203 37.535 47.805 9.507 18.541 15.983 42.237 19.551 70.904h79.174v-128.712h128.712v-99.405h-128.712v-142.715c0-32.276-0.433-50.961 3.011-60.097 3.424-9.074 11.92-18.541 21.18-24.006 12.395-7.383 26.398-11.095 42.258-11.095 28.192 0 56.261 9.136 84.103 27.471v-87.774h0.041z" />
<glyph unicode="&#xe915;" glyph-name="twitter" d="M512 960c-282.316 0-512-229.684-512-512 0-282.295 229.684-512 512-512 282.295 0 512 229.705 512 512 0 282.316-229.664 512-512 512zM740.406 565.183c0.227-5.073 0.351-10.188 0.351-15.303 0-155.728-118.503-335.236-335.318-335.236-66.552 0-128.505 19.448-180.642 52.899 9.219-1.093 18.602-1.65 28.11-1.65 55.23 0 106.026 18.85 146.365 50.445-51.559 0.949-95.095 35.019-110.088 81.855 7.177-1.361 14.581-2.124 22.15-2.124 10.745 0 21.18 1.402 31.059 4.104-53.91 10.807-94.518 58.426-94.518 115.554 0 0.495 0 1.011 0.021 1.485 15.88-8.806 34.049-14.127 53.353-14.725-31.595 21.098-52.404 57.189-52.404 98.065 0 21.613 5.795 41.866 15.942 59.272 58.097-71.316 144.963-118.214 242.883-123.164-2.021 8.641-3.032 17.613-3.032 26.872 0 65.067 52.755 117.843 117.822 117.843 33.905 0 64.49-14.313 86.021-37.205 26.872 5.28 52.033 15.055 74.863 28.605-8.868-27.532-27.491-50.61-51.889-65.212 23.861 2.846 46.63 9.157 67.686 18.541-15.715-23.593-35.699-44.361-58.736-60.922z" />
<glyph unicode="&#xe916;" glyph-name="arrow-left" d="M686.080 27.75l-319.959 420.25 319.959 420.25-10.609 22.118-337.551-442.368 337.551-442.368z" />
<glyph unicode="&#xe917;" glyph-name="arrow-right" d="M337.92 868.25l319.959-420.25-319.959-420.25 10.609-22.118 337.551 442.368-337.551 442.368z" />
<glyph unicode="&#xe918;" glyph-name="cancel" d="M726 272.667l-154 154 154 154-60 60-154-154-154 154-60-60 154-154-154-154 60-60 154 154 154-154zM512 852.667c236 0 426-190 426-426s-190-426-426-426-426 190-426 426 190 426 426 426z" />
<glyph unicode="&#xe919;" glyph-name="speech" d="M0 802.134v-563.2c0-55.501 46.899-102.4 102.4-102.4h136.533v-170.667c0-7.049 4.335-13.38 10.906-15.923 2.014-0.785 4.096-1.143 6.161-1.143 4.71 0 9.318 1.946 12.629 5.581l165.581 182.153h487.39c55.501 0 102.4 46.899 102.4 102.4v563.2c0 55.501-46.899 102.4-102.4 102.4h-819.2c-55.501 0-102.4-46.899-102.4-102.4zM682.667 529.067c0 37.649 30.618 68.267 68.267 68.267s68.267-30.618 68.267-68.267-30.618-68.267-68.267-68.267-68.267 30.618-68.267 68.267zM443.733 529.067c0 37.649 30.618 68.267 68.267 68.267s68.267-30.618 68.267-68.267-30.618-68.267-68.267-68.267-68.267 30.618-68.267 68.267zM204.8 529.067c0 37.649 30.618 68.267 68.267 68.267s68.267-30.618 68.267-68.267-30.618-68.267-68.267-68.267-68.267 30.618-68.267 68.267z" />
<glyph unicode="&#xe91a;" glyph-name="arrow_right" d="M366 240.667l196 196-196 196 60 60 256-256-256-256z" />
<glyph unicode="&#xe91b;" glyph-name="arrow_left" d="M658 252.667l-60-60-256 256 256 256 60-60-196-196z" />
<glyph unicode="&#xe91c;" glyph-name="shop-cart" d="M760.954 567.78l-206.679 310.018c-9.396 9.394-23.486 18.789-37.578 18.789s-28.183-4.697-37.578-18.789l-206.679-310.018h-225.468c-28.183 0-46.972-18.789-46.972-46.972 0-4.697 0-9.394 0-14.092l117.431-436.844c9.394-37.578 46.972-70.459 89.248-70.459h610.642c42.275 0 79.853 28.183 89.248 70.459l117.431 436.844c0 4.697 0 9.394 0 14.092 0 28.183-18.789 46.972-46.972 46.972h-216.073zM375.78 567.78l140.917 206.679 140.917-206.679h-281.835zM516.697 192c-51.67 0-93.945 42.275-93.945 93.945s42.275 93.945 93.945 93.945 93.945-42.275 93.945-93.945-42.275-93.945-93.945-93.945z" />
<glyph unicode="&#xe91d;" glyph-name="arrowhead" d="M780.994 493.002l-447.996 448c-12.669 12.669-27.653 18.998-44.997 18.998s-32.339-6.329-45.008-18.998c-12.669-12.669-18.998-27.663-18.998-44.997v-895.996c0-17.331 6.329-32.335 18.998-44.997 12.683-12.669 27.677-19.012 45.008-19.012 17.334 0 32.328 6.343 44.997 19.012l447.996 448c12.658 12.655 19.012 27.66 19.012 44.997 0 17.331-6.35 32.325-19.012 44.994z" />
<glyph unicode="&#xe91e;" glyph-name="star-black" d="M1007.413 511.288l-207.81-202.592 49.048-286.078c3.515-20.597-4.998-41.441-21.888-53.744-9.557-6.948-20.927-10.491-32.296-10.491-8.733 0-17.521 2.087-25.568 6.316l-256.913 135.061-256.913-135.061c-18.51-9.749-40.919-8.101-57.864 4.119-16.89 12.303-25.375 33.12-21.833 53.744l49.076 286.078-207.865 202.619c-15.022 14.583-20.35 36.415-13.951 56.298 6.481 19.883 23.645 34.356 44.352 37.377l287.232 41.771 128.525 260.291c9.2 18.784 28.314 30.648 49.213 30.648 20.954 0 39.986-11.864 49.241-30.621l128.525-260.291 287.287-41.771c20.652-2.993 37.871-17.494 44.242-37.377 6.536-19.883 1.071-41.716-13.841-56.298z" />
<glyph unicode="&#xe91f;" glyph-name="bin-delete" d="M170.667 49.778c0-62.578 51.2-113.778 113.778-113.778h455.111c62.578 0 113.778 51.2 113.778 113.778v682.667h-682.667v-682.667zM910.222 903.111h-199.111l-56.889 56.889h-284.444l-56.889-56.889h-199.111v-113.778h796.444v113.778z" />
<glyph unicode="&#xe920;" glyph-name="calc" d="M739.525 960h-455.082c-83.451 0-151.694-68.243-151.694-151.694v-720.612c0-83.419 68.275-151.694 151.694-151.694h455.115c83.451 0 151.694 68.275 151.694 151.694v720.612c0 83.419-68.275 151.694-151.726 151.694zM376.529 87.662c0-20.814-17.077-37.924-37.924-37.924h-54.195c-20.847 0-37.924 17.077-37.924 37.924v54.259c0 20.814 17.077 37.891 37.924 37.891h54.195c20.847 0 37.924-17.045 37.924-37.891v-54.259zM376.529 288.138c0-20.814-17.077-37.924-37.924-37.924h-54.195c-20.847 0-37.924 17.045-37.924 37.924v54.195c0 20.814 17.077 37.924 37.924 37.924h54.195c20.847 0 37.924-17.077 37.924-37.924v-54.195zM376.529 488.614c0-20.782-17.077-37.891-37.924-37.891h-54.195c-20.847 0-37.924 17.045-37.924 37.891v54.195c0 20.847 17.077 37.956 37.924 37.956h54.195c20.847 0 37.924-17.077 37.924-37.956v-54.195zM577.005 87.662c0-20.814-17.077-37.924-37.924-37.924h-54.195c-20.847 0-37.924 17.077-37.924 37.924v54.259c0 20.814 17.077 37.891 37.924 37.891h54.195c20.847 0 37.924-17.045 37.924-37.891v-54.259zM577.005 288.138c0-20.814-17.077-37.924-37.924-37.924h-54.195c-20.847 0-37.924 17.045-37.924 37.924v54.195c0 20.814 17.077 37.924 37.924 37.924h54.195c20.847 0 37.924-17.077 37.924-37.924v-54.195zM577.005 488.614c0-20.782-17.077-37.891-37.924-37.891h-54.195c-20.847 0-37.924 17.045-37.924 37.891v54.195c0 20.847 17.077 37.956 37.924 37.956h54.195c20.847 0 37.924-17.077 37.924-37.956v-54.195zM777.449 87.662c0-20.814-17.077-37.924-37.924-37.924h-54.195c-20.847 0-37.956 17.077-37.956 37.924v54.259c0 20.814 17.077 37.891 37.956 37.891h54.195c20.814 0 37.924-17.045 37.924-37.891v-54.259zM777.449 288.138c0-20.814-17.077-37.924-37.924-37.924h-54.195c-20.847 0-37.956 17.045-37.956 37.924v54.195c0 20.814 17.077 37.924 37.956 37.924h54.195c20.814 0 37.924-17.077 37.924-37.924v-54.195zM777.449 488.614c0-20.782-17.077-37.891-37.924-37.891h-54.195c-20.847 0-37.956 17.045-37.956 37.891v54.195c0 20.847 17.077 37.956 37.956 37.956h54.195c20.814 0 37.924-17.077 37.924-37.956v-54.195zM777.449 694.503c0-20.847-17.077-37.956-37.924-37.956h-455.082c-20.847 0-37.924 17.077-37.924 37.956v92.118c0 20.847 17.077 37.924 37.924 37.924h455.115c20.847 0 37.924-17.045 37.924-37.924l-0.032-92.118zM526.064 793.581c-26.485 0-39.116-23.489-39.116-53.164 0.161-29.031 11.825-52.874 38.342-52.874 26.195 0 38.955 21.813 38.955 53.486 0.032 28.096-10.665 52.552-38.181 52.552zM525.935 705.684c-9.312 0-15.015 11.213-14.821 34.701-0.161 23.843 5.832 35.056 14.66 35.056 9.634 0 14.531-12.018 14.531-34.701-0.032-23.392-5.059-35.056-14.37-35.056zM613.736 793.581c-26.55 0-39.18-23.489-39.18-53.164 0.161-29.031 11.825-52.874 38.342-52.874 26.163 0 38.955 21.813 38.955 53.486 0 28.096-10.697 52.552-38.117 52.552zM613.543 705.684c-9.312 0-15.015 11.213-14.821 34.701-0.161 23.843 5.832 35.056 14.66 35.056 9.634 0 14.531-12.018 14.531-34.701 0-23.392-5.059-35.056-14.37-35.056zM701.344 793.581c-26.485 0-39.148-23.489-39.148-53.164 0.193-29.031 11.825-52.874 38.342-52.874 26.195 0 38.955 21.813 38.955 53.486 0.032 28.096-10.697 52.552-38.149 52.552zM701.215 705.684c-9.312 0-14.983 11.213-14.854 34.701-0.129 23.843 5.864 35.056 14.66 35.056 9.634 0 14.531-12.018 14.531-34.701-0.032-23.392-5.026-35.056-14.338-35.056z" />
<glyph unicode="&#xe921;" glyph-name="people" d="M512.001 378.098c69.955 0 234.43 84.19 234.43 285.92 0 142.361-17.352 260.4-176.92 282.269v9.92c-38.265 5.057-76.755 5.057-115.020 0v-9.923c-159.568-21.87-176.92-139.908-176.92-282.269-0.003-201.727 164.474-285.917 234.43-285.917zM569.511 911.818c10.111-1.543 19.338-3.483 27.733-5.756l-13.695-122.574h-14.040v128.329zM454.492 911.818v-128.329h-14.040l-13.695 122.574c8.398 2.276 17.624 4.213 27.736 5.756zM312.722 714.705l2.247 1.299 1.137-6.034c4.793-25.486 16.899-62.013 28.797-63.443 68.198-8.177 118.172-11.671 167.099-11.671s98.9 3.494 167.096 11.671c11.909 1.432 24.010 37.957 28.797 63.44l1.134 6.040 2.247-1.302c0.786-16.717 1.026-33.738 1.026-50.69 0-98.605-43.539-159.701-80.067-193.59-46.024-42.704-97.123-58.203-120.239-58.203s-74.215 15.499-120.239 58.203c-36.528 33.889-80.067 94.986-80.067 193.59 0.006 16.952 0.246 33.973 1.032 50.69zM947.224 84.871c-11.967 74.421-36.606 170.282-86.026 204.348-33.747 23.267-151.489 86.174-201.767 113.034l-0.87 0.464c-5.747 3.074-12.767 2.453-17.891-1.569-26.338-20.678-55.19-34.614-85.753-41.419-5.399-1.203-9.83-5.040-11.793-10.21l-31.123-82.036-31.123 82.036c-1.963 5.17-6.394 9.006-11.793 10.21-30.563 6.806-59.415 20.742-85.753 41.419-5.127 4.025-12.147 4.642-17.891 1.569-49.681-26.547-168.864-90.738-202.49-113.399-56.889-38.325-81.766-177.033-86.174-204.45-0.438-2.72-0.186-5.501 0.734-8.096 2.036-5.747 54.248-140.775 434.489-140.775s432.454 135.028 434.489 140.775c0.916 2.598 1.171 5.382 0.734 8.099zM752.271-12.777c-58.217-14.826-136.138-25.239-240.284-25.239-104.152 0-182.064 10.413-240.29 25.239 17.793 151.898 0.902 283.548-8.11 337.43 9.064 5.031 18.306 10.111 27.486 15.145 34.138-90.245 40.175-204.525 40.175-204.525h361.472c0 0 6.046 114.385 40.231 204.647 9.172-5.011 18.404-10.074 27.466-15.084-9.006-53.775-25.958-185.547-8.145-337.613z" />
<glyph unicode="&#xe922;" glyph-name="price-tag" horiz-adv-x="1216" d="M933.661 421.619l-409.814-409.814c-4.774-4.774-10.007-9.325-15.467-13.417 6.824-1.819 13.871-2.728 21.15-2.728h385.25c46.623 0 84.6 37.981 84.6 84.6v344.545c-18.195 1.137-36.844 3.41-56.171 7.051-2.955-3.41-6.142-6.824-9.552-10.234zM1106.956 689.976c-0.682 0.682-1.364 1.364-2.046 2.046-37.981 37.981-93.242 73.002-156.010 99.157-11.371 4.774-22.969 9.097-34.567 12.962v0.682c-0.682 50.261-41.163 90.742-91.424 91.424l-245.615 3.637c-32.521 0.455-63.904-12.28-86.873-35.249l-409.586-410.041c-32.975-32.975-32.975-86.646 0-119.625l272.453-272.453c32.975-32.975 86.646-32.975 119.625 0l410.041 410.041c11.825 11.825 20.695 25.701 26.837 40.936 41.163-11.598 81.19-17.74 116.438-17.513 87.328 0.455 116.211 38.663 125.763 61.404 9.325 22.741 16.149 70.274-45.028 132.587zM599.577 457.326c-9.552-5.233-19.331-10.916-29.111-15.921-9.325-4.774-12.507-3.637-15.921 6.369-7.051 20.013-18.422 37.071-34.112 51.17-4.092 3.637-8.415 7.051-13.644 9.097-18.649 7.279-35.021-4.774-32.748-24.787 1.137-10.007 4.319-19.559 8.188-28.883 6.597-16.149 13.644-32.293 18.422-49.124 15.467-53.671-18.649-106.432-72.547-111.664-19.559-1.819-38.208 2.273-55.262 12.053-7.506 4.319-13.189 3.865-18.877-2.501-5.687-6.142-12.053-11.825-17.967-17.74-5.233-5.233-10.916-5.46-16.149-0.227-6.597 6.142-12.962 12.735-19.331 19.104-5.46 5.687-5.001 11.598 0.455 17.058 4.319 4.319 8.643 8.87 12.962 13.189 9.552 9.779 9.552 10.461 1.819 21.15-10.007 13.644-18.877 27.974-24.333 44.119-4.319 12.507-3.183 15.694 8.188 22.059 8.415 4.774 16.831 9.552 25.469 14.099 10.007 5.233 12.962 4.092 16.376-6.597 5.687-18.195 15.008-34.339 26.61-49.351 7.506-9.779 16.831-17.058 28.201-21.605 21.377-8.415 40.936 6.597 38.663 29.338-0.682 7.733-2.955 15.235-5.915 22.514-7.279 18.649-16.603 36.617-21.377 56.399-7.961 31.839-4.319 60.949 21.377 83.69 29.111 25.701 61.631 27.292 95.97 11.371 14.099-6.597 14.099-6.824 25.015 4.092 3.637 3.637 7.279 7.279 11.143 10.916 8.415 7.961 11.143 7.961 19.559 0 2.501-2.501 5.001-5.001 7.506-7.506 17.285-17.285 17.285-17.285 0-34.794-12.28-12.28-12.28-12.28-2.046-26.383 7.961-10.916 14.099-22.514 18.877-35.021 2.501-6.824 1.137-12.053-5.46-15.694zM1086.033 584.68c-7.733-18.422-90.287-34.567-215.595 17.74-36.844 15.235-70.956 34.339-98.93 54.807-0.909-1.137-2.046-2.273-2.955-3.41-27.292-27.292-71.865-27.292-99.157 0s-27.292 71.865 0 99.157 71.865 27.292 99.157 0c16.376-16.376 22.741-38.663 19.786-59.813 26.837-19.104 59.131-36.617 93.47-50.943 12.28-5.001 23.878-9.552 35.249-13.417l-1.364 98.702c2.046-0.909 3.865-1.591 5.915-2.501 53.671-22.287 101.885-52.761 133.042-83.918 0.455-0.455 0.909-0.909 1.364-1.364 29.565-29.793 32.521-48.897 30.020-55.035z" />
<glyph unicode="&#xe923;" glyph-name="transport" horiz-adv-x="1216" d="M406.234 234.069c-38.976 0-70.676-31.707-70.676-70.679 0-38.987 31.704-70.69 70.676-70.69 38.983 0 70.687 31.704 70.687 70.69 0 38.976-31.704 70.679-70.687 70.679zM931.459 234.069c-38.976 0-70.676-31.707-70.676-70.679 0-38.987 31.704-70.69 70.676-70.69 38.983 0 70.687 31.704 70.687 70.69 0 38.976-31.704 70.679-70.687 70.679zM1108.248 492.471l-0.307 90c-0.074 20.633-16.814 37.324-37.45 37.324h-56.184l-31.833-127.328h125.775zM983.468 757.73c2.469 11.092-0.237 22.696-7.342 31.55-7.112 8.864-17.858 14.021-29.218 14.021h-587.010c-17.557 0-32.758-12.188-36.556-29.326l-7.22-32.465h-79.813c-20.682 0-37.45-16.769-37.45-37.447s16.772-37.45 37.45-37.45h63.163l-17.679-79.579h-138.168c-20.689 0-37.45-16.775-37.45-37.45 0-20.686 16.761-37.45 37.45-37.45h121.526l-17.686-79.582h-165.63c-20.682 0-37.45-16.772-37.45-37.45s16.772-37.45 37.45-37.45h148.988l-31.069-139.799c-2.458-11.088 0.237-22.696 7.342-31.553 7.108-8.864 17.854-14.017 29.215-14.017h24.641c4.612 76.151 68.002 136.688 145.283 136.688 77.285 0 140.679-60.538 145.29-136.688h234.648c3.344 55.13 37.502 102.069 85.441 123.781l111.851 461.672zM1162.652 417.958c-5.415 7.503-13.351 12.617-22.194 14.597h-172.958l-30.925-123.704c74.772-2.59 135.379-61.826 140.141-136.042 13.225 2.245 24.812 11.517 29.326 25.137l61.794 186.312c3.777 11.42 1.854 23.95-5.188 33.704z" />
<glyph unicode="&#xe924;" glyph-name="24-hours" d="M875.393 695.445c-17.258 21.396-48.593 24.752-69.986 7.491-21.398-17.258-24.752-48.593-7.491-69.986 53.122-65.855 81.201-145.489 81.201-230.295 0-202.429-164.685-367.114-367.114-367.114-202.427 0-367.112 164.688-367.112 367.114 0 189.213 143.889 345.431 327.989 365.026l-14.865-73.759c-2.136-10.608 2.056-21.494 10.756-27.929 8.698-6.431 20.335-7.254 29.852-2.102l170.727 92.391c7.276 3.94 12.429 10.906 14.063 19.016s-0.419 16.526-5.603 22.976l-121.617 151.309c-6.778 8.435-17.823 12.186-28.333 9.621-10.514-2.562-18.595-10.975-20.733-21.581l-13.85-68.724c-248.664-9.865-447.928-215.204-447.928-466.245 0-257.313 209.34-466.655 466.653-466.655 257.315 0 466.655 209.338 466.655 466.655 0 106.254-36.674 210.238-103.262 292.79zM304.989 329.4l-35.946-32.528c-4.203-3.801-6.598-9.2-6.598-14.861v-24.958c0-11.071 8.974-20.044 20.042-20.044h195.012c11.069 0 20.042 8.974 20.042 20.044v33.399c0 11.069-8.971 20.042-20.042 20.042h-87.179l15.659 13.048c0.18 0.15 0.356 0.306 0.53 0.456 51.177 45.759 85.263 86.992 85.263 139.503 0 63.664-45.667 104.798-116.347 104.798-35.157 0-69.567-9.565-96.89-26.931-8.109-5.155-11.418-15.333-7.893-24.269l10.632-26.94c2.178-5.522 6.689-9.793 12.318-11.666 5.631-1.871 11.805-1.152 16.852 1.967 16.984 10.486 33.832 15.8 50.073 15.8 38.871 0 44.755-24.323 44.783-38.904-0.915-33.347-33.060-67.815-100.308-127.957zM618.301 553.543l-112.392-180.92c-1.973-3.177-3.021-6.837-3.021-10.577v-30.446c0-11.066 8.976-20.040 20.042-20.040h118.483v-54.51c0-11.071 8.974-20.044 20.040-20.044h42.544c11.066 0 20.040 8.974 20.040 20.044v54.51h17.48c11.066 0 20.040 8.974 20.040 20.040v28.114c0 11.069-8.974 20.042-20.040 20.042h-17.48v163.216c0 11.066-8.974 20.044-20.040 20.044h-68.672c-6.933-0.002-13.368-3.586-17.026-9.473zM641.416 379.758h-52.205l52.239 92.276-0.035-92.276z" />
<glyph unicode="&#xe925;" glyph-name="technology1" d="M512 948.25c-184.45 0-334.424-149.974-334.424-334.424 0-75.491 24.748-146.824 71.585-206.161 9.211-11.744 18.939-22.971 29.158-34.967l0.504-0.63c31.439-36.479 63.886-74.231 76.121-118.548 2.772-10.232 3.15-29.662 3.024-44.695v-25.504c0-23.362 18.939-42.288 42.288-42.288h221.685c23.362 0 42.288 18.939 42.288 42.288v25.882c-0.126 19.695 0.882 33.959 2.898 41.406 12.248 44.065 48.223 86.479 80.292 124.231l1.386 1.638c9.211 10.862 18.057 21.081 26.008 31.313 46.837 59.463 71.585 130.796 71.585 206.287 0 184.198-149.974 334.172-334.424 334.172v0zM708.307 459.933c-6.943-8.833-15.146-18.561-23.866-28.78l-1.638-2.016c-37.5-44.065-79.914-93.926-97.089-156.161-2.394-8.833-5.179-22.089-5.809-47.467h-137.361c-0.63 27.016-3.276 40.776-5.809 50.126-17.175 62.991-59.589 112.235-93.674 151.751l-0.63 0.63c-9.589 11.114-18.687 21.711-26.764 31.943-34.967 44.317-53.402 97.593-53.402 153.893 0 137.739 112.109 249.709 249.709 249.709 137.739 0 249.709-112.109 249.709-249.709 0-56.3-18.435-109.45-53.402-153.893v0zM621.954 128.911h-221.685c-23.362 0-42.288-18.939-42.288-42.288s18.939-42.288 42.288-42.288h221.685c23.362 0 42.288 18.939 42.288 42.288s-18.939 42.288-42.288 42.288v0zM566.536 32.339h-110.849c-23.362 0-42.288-18.939-42.288-42.288s18.939-42.288 42.288-42.288h110.849c23.362 0 42.288 18.939 42.288 42.288s-18.939 42.288-42.288 42.288z" />
<glyph unicode="&#xe926;" glyph-name="clock" d="M512 960c-282.317 0-512-229.683-512-512s229.683-512 512-512 512 229.683 512 512-229.683 512-512 512zM512 44.945c-222.243 0-403.066 180.802-403.066 403.055s180.823 403.055 403.066 403.055 403.066-180.802 403.066-403.055-180.823-403.055-403.066-403.055zM778.834 463.809h-230.094v276.657c0 23.281-18.876 42.157-42.157 42.157s-42.157-18.876-42.157-42.157v-318.814c0-23.281 18.876-42.157 42.157-42.157h272.252c23.281 0 42.157 18.876 42.157 42.157s-18.876 42.157-42.157 42.157z" />
<glyph unicode="&#xe927;" glyph-name="print" d="M768 810.667v-170h-512v170h512zM810 426.667c24 0 44 18 44 42s-20 44-44 44-42-20-42-44 18-42 42-42zM682 128.667v212h-340v-212h340zM810 596.667c70 0 128-58 128-128v-256h-170v-170h-512v170h-170v256c0 70 58 128 128 128h596z" />
<glyph unicode="&#xe928;" glyph-name="calendar" horiz-adv-x="951" d="M73.143 0h164.571v164.571h-164.571v-164.571zM274.286 0h182.857v164.571h-182.857v-164.571zM73.143 201.143h164.571v182.857h-164.571v-182.857zM274.286 201.143h182.857v182.857h-182.857v-182.857zM73.143 420.571h164.571v164.571h-164.571v-164.571zM493.714 0h182.857v164.571h-182.857v-164.571zM274.286 420.571h182.857v164.571h-182.857v-164.571zM713.143 0h164.571v164.571h-164.571v-164.571zM493.714 201.143h182.857v182.857h-182.857v-182.857zM292.571 694.857v164.571c0 9.714-8.571 18.286-18.286 18.286h-36.571c-9.714 0-18.286-8.571-18.286-18.286v-164.571c0-9.714 8.571-18.286 18.286-18.286h36.571c9.714 0 18.286 8.571 18.286 18.286zM713.143 201.143h164.571v182.857h-164.571v-182.857zM493.714 420.571h182.857v164.571h-182.857v-164.571zM713.143 420.571h164.571v164.571h-164.571v-164.571zM731.429 694.857v164.571c0 9.714-8.571 18.286-18.286 18.286h-36.571c-9.714 0-18.286-8.571-18.286-18.286v-164.571c0-9.714 8.571-18.286 18.286-18.286h36.571c9.714 0 18.286 8.571 18.286 18.286zM950.857 731.428v-731.429c0-40-33.143-73.143-73.143-73.143h-804.571c-40 0-73.143 33.143-73.143 73.143v731.429c0 40 33.143 73.143 73.143 73.143h73.143v54.857c0 50.286 41.143 91.429 91.429 91.429h36.571c50.286 0 91.429-41.143 91.429-91.429v-54.857h219.429v54.857c0 50.286 41.143 91.429 91.429 91.429h36.571c50.286 0 91.429-41.143 91.429-91.429v-54.857h73.143c40 0 73.143-33.143 73.143-73.143z" />
</font>
</defs>
</svg>
