<?xml version="1.0" standalone="no"?>
<!DOCTYPE svg PUBLIC "-//W3C//DTD SVG 1.1//EN" "http://www.w3.org/Graphics/SVG/1.1/DTD/svg11.dtd">
<svg xmlns="http://www.w3.org/2000/svg">
<metadata>Copyright (C) 2013 by original authors @ fontello.com</metadata>
<defs>
<font id="fontello" horiz-adv-x="1000" >
<font-face font-family="fontello" font-weight="400" font-stretch="normal" units-per-em="1000" ascent="850" descent="-150" />
<missing-glyph horiz-adv-x="1000" />
<glyph glyph-name="emo-happy" unicode="&#xe801;" d="m261 800c-60 0-109-65-109-144c0-80 49-145 109-145s110 65 110 145c0 79-49 144-110 144z m477 0c-61 0-110-65-110-144c0-80 49-145 110-145c60 0 109 65 109 145c0 79-49 144-109 144z m208-599c-13 0-27-5-37-16c-4-4-8-8-12-12c-111-109-253-164-396-165c-142-2-285 50-396 155l-3 3l-12 12c-21 21-54 20-75-1c-20-21-20-55 1-76c3-4 8-8 14-14l3-3c132-124 301-185 469-184c169 1 337 67 468 195c5 5 9 9 14 14c20 22 20 56-1 77c-10 10-24 15-37 15z" horiz-adv-x="999" />
<glyph glyph-name="odnoklassniki-rect-1" unicode="&#xefb7;" d="m1000 761v-824q0-36-26-62t-62-26h-824q-36 0-62 26t-26 62v824q0 36 26 62t62 26h824q36 0 62-26t26-62z m-295-216q0 87-59 150t-146 63t-146-63t-59-150t59-150t146-63t146 63t59 150z m22-279q0 26-17 44t-43 19q-15 0-28-8q-70-36-140-36q-69 0-138 36q-16 7-28 7q-25 0-42-19t-18-44q0-68 147-97l-117-121q-18-18-18-44t18-45t42-18t43 18l112 116l112-116q18-18 43-18t43 18t17 45t-18 44l-117 121q147 30 147 98z m-142 279q0-36-24-62t-61-26t-60 26t-25 62t25 62t60 26t61-26t24-62z" horiz-adv-x="1000" />
<glyph glyph-name="emo-wink2" unicode="&#xe803;" d="m664 800c-61 0-110-65-110-144c0-80 49-145 110-145c60 0 110 65 110 145c0 79-50 144-110 144z m-343-98l-267 0c-30 0-54-24-54-54c0-30 24-54 54-54l267 0c30 0 54 24 54 54c0 30-24 54-54 54z m-262-361c-6 0-13-1-19-3c-27-10-41-41-31-68c46-127 136-228 249-289c22-12 45-22 69-31c58-21 120-32 184-32c57 0 113 8 166 26c10 3 20 7 30 11c11 4 21 8 31 12l0 1l0 0l0 0c26 12 38 44 25 70c-13 27-44 38-70 26l0 0c-9-4-17-8-24-11c-9-3-17-6-25-9c-43-13-88-21-133-21c-51 0-101 10-148 27c-19 7-37 15-55 25c-90 48-163 130-200 231c-8 21-28 35-49 35z" horiz-adv-x="774" />
<glyph glyph-name="emo-unhappy" unicode="&#xe804;" d="m261 800c-60 0-109-65-109-144c0-80 49-145 109-145s110 65 110 145c0 79-49 144-110 144z m477 0c-61 0-110-65-110-144c0-80 49-145 110-145c60 0 109 65 109 145c0 79-49 144-109 144z m-244-599c-165 0-331-62-461-184l-3-3c-6-5-11-10-14-14c-21-21-21-55-1-76c21-21 54-21 75-1l12 12l3 3c111 105 254 157 396 155c143-1 285-56 396-165c4-4 8-8 12-12c20-21 54-21 74-1c21 21 21 55 1 77c-5 5-9 9-14 14c-131 128-299 194-468 195c-3 0-6 0-8 0z" horiz-adv-x="999" />
<glyph glyph-name="emo-sleep" unicode="&#xe805;" d="m53 693c-11 0-21-4-30-10c-24-17-30-51-13-75c44-64 119-102 196-102c70 0 138 32 183 85c20 22 18 55-4 75c-22 20-56 18-76-4l0 0l-1-2l0 1l0-1l-1-1c-3-3-7-7-10-10l-1-1l-1-1c-3-3-7-6-11-9l0 0c-59-42-143-29-186 32c-11 15-28 23-45 23z m485 0c-11 0-21-4-30-10c-24-17-30-51-13-75c45-64 119-102 197-102c70 0 137 32 183 85c19 22 17 55-5 75c-22 20-56 18-76-4l0 0l-1-2l0 1l0-1l-1-1c-3-3-7-7-10-10l-1-1l0-1c-4-3-8-6-12-9l0 0c-59-42-143-29-186 32c-11 15-28 23-45 23z m-435-579c-30 0-54-24-54-53c0-30 24-54 54-54l682 0c30 0 54 24 54 54s-24 53-54 53l-682 0z" horiz-adv-x="888" />
<glyph glyph-name="emo-thumbsup" unicode="&#xe806;" d="m744 850c-60 0-109-64-109-143c0-79 49-143 109-143c60 0 108 64 108 143c0 79-48 143-108 143z m-602-81c-29 0-53-23-53-53s24-53 53-53l290 0c30 0 54 24 54 53s-24 53-54 53l-290 0z m1040-20c-16 0-35-2-55-7c-111-51-108-174-92-266l-131 0c-68 0-124-53-124-123c0-34 8-71 30-98c-10-11-18-24-23-38c-18-48-11-106 23-144c-5-6-18-27-18-27c-29-57-10-144 46-179c17-11 38-17 64-17l378 0c91 3 167 76 167 169l0 287c0 49-30 108-49 151c-25 58-49 116-73 174c-30 72-71 118-143 118z m3-115c30 1 42-48 51-67c21-52 42-129 64-181c21-47 38-88 38-104l0-255c0-41-36-72-76-74l-332 0c-17 0-26 9-30 24c-5 15-7 34 4 47c6 8 16 13 26 13c21-1 38 17 38 38c0 20-16 37-37 37c-9 0-18 4-24 11c-15 16-16 50-1 65c4 4 8 6 13 8c4 1 8 2 12 2c20 0 37 17 37 38c0 21-16 38-37 38c-28 0-34 28-34 50c0 12 7 23 17 29c-1 2 189 4 210 4c27 0 47 30 33 55c-27 51-45 207 22 221c2 1 4 1 6 1z m-1133-264c-7 0-14-1-20-4c-27-13-39-44-27-71c66-148 194-254 344-297c29-8 59-14 90-17c30-3 61-4 91-2l3 0l2 0c30 3 52 28 50 58c-2 29-28 51-58 49l-2 0l-1 0c-25-2-50-1-74 1c-24 3-48 8-72 14c-120 34-222 120-276 238c-9 20-29 32-50 31z" horiz-adv-x="1447" />
<glyph glyph-name="emo-devil" unicode="&#xe807;" d="m111 850c-1 0-3 0-5 0c-1 0-2 0-4-1l0 0c0 0-1 0-2 0c-1 0-1 0-1 0c-8-2-17-7-24-12c-2-1-3-3-5-4c-1-1-2-2-4-3l0 0l0 0l0 0l0 0c-11-11-20-22-28-34c-2-2-3-5-5-7c-1-2-3-4-4-7l0 0l0 0l0 0c-7-12-12-25-17-38c-1-2-1-5-2-7c-1-2-1-5-2-8l0 0c-17-65-5-136 18-188c5-10 10-19 15-28c5-8 11-16 16-23l1 0l0 0l0 0l0 0c5-6 12-10 20-10c7-1 15 2 21 7l0 0c1 1 3 2 4 4l0 0c0 0 0 0 0 0c0 0 1 1 1 1c4 5 7 10 11 15l3 3l2 2l0 1c4 4 8 9 12 14l3 2l2 2l0 1l0 0l0 0l0 0c22 24 47 44 74 62c5 4 11 7 16 10c5 3 10 6 16 9c0 1 0 1 0 1c8 4 12 10 15 17c2 8 1 16-3 23l0 0c-2 5-6 8-11 11l0 0l0 0c0 0-1 1-1 1c-1 0-1 0-1 0c-1 1-2 1-3 2l0 0l0 0l0 0l0 0c-7 2-14 5-20 8c-1 0-2 1-3 2l-3 1c0 0-1 1-1 1l0 0c-6 3-11 6-16 10c0 0-1 1-2 2l-2 1c-1 1-1 1-1 1l0 0l0 0l0 0c-23 19-36 42-40 67c-1 4-1 9-1 14c0 5 0 10 1 14l0 0l0 1c2 10 1 18 0 25c0 2-1 3-1 5c0 1-1 3-2 4l0 0l0 0l0 0c-3 8-8 14-14 19c-1 1-3 1-4 2c-1 1-3 2-4 2l0 0l0 0c-5 2-10 3-15 3z m777 0c-5 0-10-1-14-3l0 0l0 0c-2 0-3-1-4-2c-2-1-3-1-4-2c-6-5-11-11-15-19l0 0l0 0l0 0c0-1-1-3-1-4c-1-2-1-3-1-5c-2-7-2-15 0-25l0-1l0 0c0-4 1-9 1-14c0-5-1-10-2-14c-3-25-17-48-39-67l0 0l0 0l0 0c-1 0-1 0-1-1l-2-1c-1-1-2-2-3-2c-5-4-10-7-15-10l0 0c-1 0-1-1-1-1l-3-1c-2-1-3-2-4-2c-6-3-12-6-19-8l0 0l0 0l0 0l0 0c-1-1-2-1-3-2c0 0-1 0-1 0c-1 0-1-1-2-1l0 0l0 0c-4-3-8-6-11-11l0 0c-3-7-4-15-2-23c2-7 7-13 14-17c0 0 1 0 1-1c6-3 11-6 16-9c5-3 10-6 16-10c27-18 51-38 74-62l0 0l0 0l0 0l0-1l2-2l3-2c4-5 8-10 12-14l0-1l2-2l2-3c4-5 8-10 12-15c0 0 0-1 0-1c1 0 1 0 1 0l0 0c1-2 2-3 3-4l1 0c6-5 14-8 21-7c7 0 14 4 20 10l0 0l0 0l0 0l0 0c6 7 11 15 17 23c5 9 10 18 14 28c23 52 36 123 19 188l0 0c-1 3-2 6-2 8c-1 2-2 5-3 7c-4 13-9 26-16 38l0 0l0 0l0 0c-2 3-3 5-5 7c-1 2-2 5-4 7c-8 12-17 23-28 34l-1 0l0 0l0 0l0 0c-1 1-2 2-4 3c-1 1-2 3-4 4c-8 5-16 10-24 12c0 0-1 0-1 0c-1 0-2 0-3 0l0 0c-1 1-2 1-4 1c-1 0-3 0-5 0z m-666-388l-1-2l0 0c-46-63-46-164 0-227c22-30 53-49 87-49l0 0l1 0l0 0c82 0 122 94 122 162l0 0l0 1l0 0c0 6 0 11-1 16c-2 1-4 2-7 4l-201 95z m555 0l-201-95c-2-2-4-3-6-4c-1-5-1-10-1-16l0 0l0-1l0 0c0-68 40-162 122-162l0 0l0 0l0 0c35 0 65 19 87 49c46 63 46 164 0 227l0 0l-1 2z m22-374c-13 0-27-5-37-15l0 0c-1-1-1-2-2-3c-10-10-20-20-31-29c-10-9-22-18-34-26c-62-41-135-62-211-58l0 0l0-1c-46 2-92 14-134 33c-7 4-14 7-20 10c-33 19-64 43-91 72c-20 21-53 23-75 3c-22-20-23-53-3-75c34-37 74-68 119-93c9-5 17-9 26-13c54-25 113-40 174-42l0-1l0 0c98-4 193 23 273 76c16 11 31 22 45 34c14 12 28 25 40 39c20 21 20 54-1 74c-10 11-24 16-38 15z" horiz-adv-x="1000" />
<glyph glyph-name="emo-surprised" unicode="&#xe808;" d="m110 849c-61 0-110-65-110-145c0-79 49-144 110-144s109 65 109 144c0 80-49 145-109 145z m476 0c-60 0-110-65-110-145c0-79 50-144 110-144c61 0 110 65 110 144c0 80-49 145-110 145z m-255-432l0 0c-56 0-107-23-143-60c-37-36-60-87-60-143l0 0l0-162l0 0c0-56 23-106 59-143c37-37 88-60 144-60l0 0l34 0l0 0c56 0 106 23 143 60c37 36 60 87 60 143l0 0l0 162l0 0c0 56-23 107-60 143c-36 37-87 60-143 60l0 0l-34 0z m0-107l0 0l34 0l0 0c26 0 50-11 67-29c18-17 29-41 29-67l0 0l0-162l0 0c0-26-11-50-29-67c-17-18-41-29-67-29l0 1l-34 0l0-1c-26 0-50 11-68 29c-17 17-28 41-28 67l0 0l0 162l0 0c0 26 11 50 28 67c18 18 42 29 68 29z" horiz-adv-x="696" />
<glyph glyph-name="emo-tongue" unicode="&#xe809;" d="m174 800c-61 0-110-65-110-144c0-80 49-145 110-145s110 65 110 145c0 79-50 144-110 144z m476 0c-60 0-109-65-109-144c0-80 49-145 109-145c61 0 110 65 110 145c0 79-49 144-110 144z m121-560l-718-1c-29 0-53-24-53-54c0-29 24-53 53-53l140 0l0-74c0-55 20-108 59-148c47-47 104-60 166-60c57 0 111 18 153 60c41 40 60 93 60 149l0 74l140 0c29 0 53 24 53 53c0 30-24 54-53 54z m-471-109l224 0l0-72c0-27-7-53-28-74c-39-39-129-39-168 0c-20 21-28 45-28 73l0 73z" horiz-adv-x="824" />
<glyph glyph-name="emo-coffee" unicode="&#xe80a;" d="m1234 850c-17 0-34-8-44-23c-54-80-24-144 4-204c13-29 26-56 5-72c-23-17-28-51-10-74c17-23 51-28 74-10c89 67 59 131 27 201c-15 33-32 70-12 99c16 25 10 57-14 74c-9 6-20 9-30 9z m-1021-121c-81 0-157-39-203-105c-17-25-11-59 13-77c25-17 60-11 77 14c45 63 132 76 193 32l0 0c3-2 7-5 11-9l1-1l1-1c3-3 7-7 10-10l1-2l0 0l0 0l1-1l1 0c20-23 55-25 78-4c22 20 24 55 4 77c-46 55-116 87-188 87z m499 0c-80 0-156-39-202-105c-18-25-12-59 13-77c25-17 59-11 77 14c44 63 131 76 192 32l0 0c4-2 8-5 12-9l0-1l1-1c4-3 7-7 11-10l1-2l0 0l0 0l1-1l0 0c20-23 55-25 78-4c23 20 25 55 4 77c-46 55-116 87-188 87z m206-346c-24 0-44-19-44-43l0-4l0-275l0 0l0 0l0 0c0-58 24-111 62-149l0 0l0 0l0 0c38-38 91-62 148-62l0 0l226 0c1 0 3 0 5 0c13 1 27 2 39 5c15 4 29 8 42 14c55 26 97 74 114 133l31 0l0 0c37 0 70 15 93 39c24 23 39 56 39 92l0 0l0 0l0 119l0 0c0 36-15 69-39 93l0 0c-23 23-56 38-92 38l0 0l0 0l-624 0z m604-100c11 0 21-5 28-12l1 0l0 0c7-8 12-18 12-29l0 0l0-110l0 0c0-11-5-21-12-29c-8-7-18-12-29-12l0 0l-62 0l0 0c-21 0-39-16-40-37c-4-41-31-76-67-93c-7-3-15-6-22-8c-7-1-14-2-21-2l-3 0l-209 0l0 0c-31 0-59 12-79 33l-1 0c-21 21-34 50-34 81l0 0l0 0l0 0l0 218l538 0l0 0z m-82-55l0-96l32 0c21 0 39 17 39 38l0 20c0 21-18 38-39 38l-32 0z m-1131-12c-30 0-55-25-55-55s25-55 55-55l296 0c31 0 55 25 55 55s-24 55-55 55l-296 0z" horiz-adv-x="1673" />
<glyph glyph-name="emo-sunglasses" unicode="&#xe80b;" d="m495 745c-154 0-309 0-463 0c-18 0-32-15-32-33c3-152 129-306 278-309c84-2 164 36 218 95c55-59 135-97 219-95c148 3 272 157 275 309c0 18-14 33-32 33c-155 0-309 0-463 0z m319-510c-18 0-35-9-45-25l0 0c0-1-1-2-1-3c-7-12-15-23-24-34c-10-12-19-23-29-32c-54-51-126-80-203-80l0 0l0 0c-21 0-43 2-64 7c-3 0-6 1-10 2c-17 5-34 11-51 19c-26 12-58 1-70-26c-13-27-1-58 25-71c22-10 45-18 69-24c4-1 9-2 14-4c29-6 58-9 87-9l0 0l0 0c103 0 201 40 275 108c15 14 28 29 40 44c11 14 22 30 32 47c0 0 1 1 1 1c15 25 7 58-18 73c-9 5-18 7-28 7z" horiz-adv-x="990" />
<glyph glyph-name="emo-displeased" unicode="&#xe80c;" d="m171 800c-61 0-110-65-110-144c0-80 49-145 110-145s109 65 109 145c0 79-49 144-109 144z m476 0c-61 0-110-65-110-144c0-80 49-145 110-145c60 0 110 65 110 145c0 79-50 144-110 144z m-594-447c-18 0-36-10-46-27c-15-26-6-59 20-74l709-379c26-15 59-6 74 20c15 26 6 59-20 74l-709 379c-9 5-18 7-28 7z" horiz-adv-x="817" />
<glyph glyph-name="emo-beer" unicode="&#xe80d;" d="m1364 850c-30 0-59-7-86-20c-4-2-8-4-12-7c-38-22-37-12-80-14c-32-1-62-12-89-29c-26-16-49-39-65-64c-16-27-26-58-25-89c1-26 23-47 48-47l0 0l620 0c26 0 48 22 48 48c3 32-7 64-24 91c-15 24-36 45-60 61c-25 15-53 26-82 29c-21 2-42 0-62-6c-3 3-7 5-10 8c-36 26-79 39-121 39z m-696-47c-61 0-110-65-110-145c0-80 49-145 110-145c61 0 111 65 111 145c0 80-50 145-111 145z m696-50c29 1 60-12 83-37c15-19 42-24 63-11c11 7 24 9 37 8c14-2 28-7 40-15c9-5 17-13 24-21l-488 0c8 8 16 16 25 22c13 8 28 13 42 14c10 0 21-2 31-8c19-13 46-9 62 9c21 25 51 39 81 39z m-1041-49l-269 0c-30 0-54-24-54-54c0-30 24-54 54-54l269 0c30 0 54 24 54 54c0 30-24 54-54 54z m727-190c-23 0-42-19-42-42l0-4l-1-412l0 0l0 0l0 0c0-56 24-108 61-145l0 0l0-1l0 0c37-37 89-60 145-60l0 0l220 0c2 0 4 0 5 0c14 1 27 2 39 5c14 3 28 8 41 14c53 25 95 72 112 129l30 0l0 1c35 0 68 14 91 38c23 23 37 55 38 90l0 0l0 0l0 0l0 258l0 0l0 0c0 36-15 68-38 91l0 0c-23 24-55 38-91 38l0 0l0 0l-610 0z m591-98c11 0 21-5 28-12l0 0l0 0c7-7 12-17 12-28l0 0l0 0l0-250l0 0l0 0c0-11-5-21-12-28c-7-8-17-12-28-12l0 0l-61 0l0 0c-20 0-37-16-39-36c-4-41-30-75-65-92c-7-3-15-5-22-7c-7-1-14-2-21-3l-2 0l-204 0l0 0c-31 0-58 13-78 33l-1 0c-20 21-33 49-33 79l0 0l0 0l0 0l0 356l103 0l0-349c0-35 69-34 69 0l0 349l102 0l0-353c0-36 69-34 69 0l0 353l183 0l0 0z m-80-60l0-208l32 0c20 0 37 17 37 37l0 133c0 21-17 38-37 38l-32 0z m-1502-15c-6 0-12-1-18-4c-28-10-42-40-32-68c46-127 137-229 251-290c22-12 45-23 69-32c58-21 121-33 186-33l0 0l0 0l0 0c57 0 113 9 166 27c11 3 21 7 31 11c11 4 22 8 31 13l0 0l0 0l0 0c27 13 38 45 25 71c-12 27-44 38-70 26l0 0c-9-4-17-8-25-11c-8-3-16-6-25-9c-43-14-88-21-133-21l0 0l0 0l0 0c-52 0-102 9-149 27c-19 7-38 15-55 25c-92 49-165 130-202 232c-8 22-28 36-50 36z" horiz-adv-x="1789" />
<glyph glyph-name="emo-grin" unicode="&#xe80e;" d="m197 801c-61 0-110-64-110-144c0-80 49-144 110-144s109 64 109 144c0 80-49 144-109 144z m476 0c-60 0-110-64-110-144c0-80 50-144 110-144c61 0 110 64 110 144c0 80-49 144-110 144z m144-480l-765 0c-29-1-52-25-52-54c3-200 238-351 422-354c186-3 442 156 448 355c0 29-24 53-53 53z m-700-106l634 0c-62-121-190-201-331-197c-130 4-246 83-303 197z" horiz-adv-x="870" />
<glyph glyph-name="emo-angry" unicode="&#xe81d;" d="m53 738c-20 0-39-11-48-30c-12-27-1-58 25-71l152-80c-3-46 8-93 34-128c21-29 51-50 87-50c91 0 127 108 122 180c-120 53-232 115-349 174c-7 4-15 5-23 5z m894 0c-8 0-16-1-23-5c-117-59-229-121-349-174c-5-72 31-180 121-180c36 0 67 21 88 50c25 35 37 82 34 128l151 80c27 13 38 44 26 71c-10 19-29 30-48 30z m-453-537c-165 0-330-62-461-184l-3-3c-5-5-10-10-14-14c-21-21-21-55-1-76c21-21 54-21 75-1l12 12l3 3c112 105 254 157 396 155c143-1 286-56 396-165c4-4 8-8 12-12c21-21 54-21 75-1c20 21 21 55 0 77c-4 5-9 9-14 14c-130 128-299 194-468 195c-3 0-5 0-8 0z" horiz-adv-x="1000" />
<glyph glyph-name="emo-saint" unicode="&#xe81e;" d="m489 841c-115 0-229-10-322-30c-103-21-167-57-167-102l0 0l0 0l0 0c1-45 64-81 167-102l0 0c190-40 475-40 665 0c103 21 167 57 167 102l0 0l0 0l0 0c0 45-64 81-167 102l0 0c-98 21-221 31-343 30z m11-89c193 0 350-19 350-43c0-24-157-43-350-43c-194 0-351 19-351 43c0 24 157 43 351 43z m-334-359c-30 0-54-24-54-54s24-54 54-54l186 0c30 0 54 24 54 54c0 30-24 54-54 54l-186 0z m482 0c-30 0-54-24-54-54s24-54 54-54l186 0c30 0 54 24 54 54c0 30-24 54-54 54l-186 0z m151-302c-13 0-27-5-37-15c-1-1-1-2-2-3c-10-10-20-20-31-29c-11-9-22-18-34-26c-62-41-135-62-211-58l0 0c-46 2-92 13-134 32c-7 4-14 7-20 10c-33 19-64 43-91 72c-20 22-54 23-75 3c-22-20-23-53-3-75c34-37 74-68 118-93c9-4 18-9 27-13c54-25 113-40 174-42l0 0c98-5 193 22 273 75c16 11 31 22 45 34c14 12 28 25 40 39c20 21 20 54-1 74c-10 11-24 16-38 16z" horiz-adv-x="999" />
<glyph glyph-name="emo-cry" unicode="&#xe81f;" d="m278 787c-7 0-15-2-23-5l-128-62l-80-38c-2-1-4-2-6-3c-1-5-1-11-1-16l0 0l0-1l0 0c0-69 40-162 121-163l0 0l1 0l0 0c34 1 65 19 87 50c26 35 37 82 34 128l18 8c27 13 38 45 25 71c-9 20-28 31-48 31z m212 0c-20 0-39-11-48-31c-13-26-1-58 25-71l18-8c-3-46 9-93 34-128c22-31 53-49 87-50l0 0l1 0l0 0c82 1 121 94 122 163l0 0l0 1l0 0c0 5-1 11-1 16c-2 1-5 2-7 3l-80 38l-128 62c-7 3-15 5-23 5z m279-303c-7 1-15-4-21-15c-42-72-96-259 27-259c123 1 73 182 16 261c-6 8-14 13-22 13z m-512-137c-57 0-113-9-166-26c-10-4-20-7-30-11c-11-5-21-9-30-13l0 0l-1-1l0 0c-26-12-37-44-25-70c13-26 44-38 70-25l0-1c9 4 17 8 24 11c9 3 17 6 25 9c43 14 88 21 133 21c51 0 101-10 148-27c19-7 37-15 55-24c91-49 163-130 200-232c10-27 40-41 68-31c27 10 42 40 32 68c-46 126-137 227-250 288c-22 12-45 22-69 31c-57 21-120 33-184 33z" horiz-adv-x="851" />
<glyph glyph-name="emo-shoot" unicode="&#xe820;" d="m53 850c-20 0-39-11-48-30c-12-27-1-59 25-71l152-81c-3-45 8-92 34-128c21-28 51-49 87-49c91 0 127 107 122 180c-120 52-232 114-349 174c-7 3-15 5-23 5z m519-169c-30 0-54-24-54-54s24-54 54-54l186 0c30 0 54 24 54 54c0 30-24 54-54 54l-186 0z m619-87c-40 0-77-17-105-43l-2-2c-5-6-10-11-14-17c-11-15-20-32-25-51c-17-7-35-14-52-23c-27-13-55-29-82-48l0 0c-73-50-163-159-201-265c-8-22-14-44-17-66c-3-21-4-42-2-63l1-4l0-1c9-68 37-114 78-140c9-5 18-9 28-13c8-2 17-4 26-5c2-1 3-1 5-1l4 0l0 0l1 0c53-3 100-2 145-1c21 1 41 1 60 1c118 1 143 92 167 184c7 26 14 52 23 72l219 0c84 0 127 45 148 100c3 11 6 21 8 32l290-1l1 0c29 0 52 23 52 52l0 154l1 0l0 67l-1 0l0 0c0 21-8 40-22 53c-12 12-27 20-44 22c-4 1-7 1-10 1l-49 0l0 0l-1 0c-19-1-36-8-49-20l0 0l-1 0l-2-2l-1-1c-9-8-15-20-19-32l-163 0c-13 18-30 33-50 43l0 0c-5 3-10 5-15 7l-4 1c-14 6-29 9-45 9c-2 0-4 1-6 1l-275 0z m278-105c4-1 8-2 12-3l1-1l1 0l0 0c2 0 3-1 4-2l0 0l0 0c9-5 17-13 21-23c9-21 31-34 53-32l237 0c19 0 35 10 44 24l0-7l1 0l0-101l-286 1c-29 0-52-23-52-52l0 0c0-3-1-8-1-14l0 0l0 0l0-1c-1-5-1-11-3-17c-1-6-2-11-4-17c-6-17-21-31-49-31l-249 0c-19 0-36-10-45-26c-4-6-9-13-12-19l0-1c-6 4-35-97-37-104c-14-53-28-106-67-106c-22 0-42-1-62-1l0 0c-42-1-85-3-135 0l0 0l-3 1l-2 0c-2 0-4 1-5 1c-3 1-5 2-7 3c-14 9-24 30-28 64l-1 1l0 1c-1 11 0 23 2 37c2 15 6 30 12 45c31 86 103 175 161 215l0 0l0 0c23 15 46 29 70 40c23 12 46 21 69 29c22 7 36 28 36 50l0 0l0 0l0 0l0 2c1 9 4 18 9 25c2 2 3 4 5 5c8 8 20 14 32 14l275 0l3 0z m-1027-176c-123 0-241-44-334-120c-17-15-35-31-51-49c-16-17-31-36-45-55c-16-24-10-57 14-74c23-17 56-11 73 13c11 16 23 31 36 44c12 14 26 27 41 39c74 61 167 95 266 95l0 0l0 1c18-1 36-2 55-4c1 0 1 0 8-2c16-2 31-5 45-9c28-7 57 9 65 38c8 28-9 57-38 65c-18 5-37 9-56 12c-1 0-3 0-11 1c-22 3-45 4-68 4l0 1l0 0z" horiz-adv-x="1948" />
<glyph glyph-name="emo-squint" unicode="&#xe821;" d="m128 607c-30 0-54-24-54-54c0-30 24-54 54-54l267 0c30 0 54 24 54 54c0 30-24 54-54 54l-267 0z m476 0c-29 0-54-24-54-54c0-30 25-54 54-54l267 0c30 0 54 24 54 54c0 30-24 54-54 54l-267 0z m342-406c-13 0-27-5-37-16c-4-4-8-8-12-12c-111-109-253-164-396-165c-142-2-285 50-396 155l-3 3l-12 12c-21 21-54 20-75-1c-20-21-20-55 1-76c3-4 8-8 14-14l3-3c132-124 301-185 469-184c169 1 337 67 468 195c5 5 9 9 14 14c20 22 20 56-1 77c-10 10-24 15-37 15z" horiz-adv-x="999" />
<glyph glyph-name="emo-laugh" unicode="&#xe822;" d="m206 741c-77 0-152-38-196-102c-17-24-11-57 13-74c24-17 57-12 75 13c43 61 127 74 186 31l0 0c4-2 8-5 11-9l1 0l1-1c3-3 7-7 10-11l1-1l0 0l0 0l1-1l0-1c20-22 54-23 76-4c22 20 24 54 4 76c-45 53-113 84-183 84z m486 0c-78 0-152-38-197-102c-17-24-11-57 13-74c24-17 58-12 75 13c43 61 127 74 186 31l0 0c4-2 8-5 12-9l0 0l1-1c3-3 7-7 10-11l1-1l0 0l0 0l1-1l0-1c20-22 54-23 76-4c22 20 24 54 5 76c-46 53-113 84-183 84z m148-420l-765 0c-29-1-52-25-52-54c4-200 238-351 422-354c186-3 443 156 448 355c0 29-24 53-53 53z m-700-106l634 0c-61-121-190-201-331-197c-129 4-246 83-303 197z" horiz-adv-x="893" />
<glyph glyph-name="spin1" unicode="&#xe80f;" d="m496 850c-176 0-331-90-422-226c-17-27-32-55-45-85c-12-29-21-60-28-92c0 0 0-1 0-1l0 0l0 0c0-1 0-2 0-2c0-7 5-12 11-12l101 0c5 0 10 3 11 9c29 113 109 206 214 253c20 9 41 17 63 23c31 7 62 11 95 11l0 0l0 0l0 0c25 0 50-2 74-7c5-1 10-2 14-3c6-1 10-3 14-4l0 0c5-1 11 1 13 6l51 87c0 0 0 1 1 2c2 6-1 13-8 15c-21 7-42 13-64 17c-5 1-9 1-13 2c-27 4-54 7-82 7l0 0l0 0z m326-114c-4 0-8-2-10-6l-50-87c-3-4-2-10 2-14c29-29 54-63 73-101c4-7 7-14 11-22c19-46 30-97 30-151l0 0l0 0c0-77-22-149-62-209c-7-11-15-23-24-34c-9-10-18-20-28-30l0 0l0 0l0 0c-4-4-5-10-2-14l50-87c0-1 1-2 1-3c5-4 12-5 17-1c58 52 104 117 134 190c6 15 11 29 15 44c14 46 21 94 21 144c0 108-34 209-92 291c-11 16-24 31-37 46c-13 14-26 28-41 41l0 0c-1 1-1 1-2 1c-2 1-4 2-6 2z m-810-468l0 0c-1 0-2 0-3 0c-6-1-10-8-9-14c34-166 149-302 302-366c30-12 61-21 93-28c32-6 66-10 100-10l0 0l0 0c40 0 79 5 117 14c7 2 14 3 22 5c6 2 13 5 20 7c1 0 2 1 3 1c6 3 8 10 4 16l-50 87c-3 5-8 7-13 6c-14-4-28-7-42-9c-3-1-6-1-8-2c-18-2-35-3-53-3l0 0l0 0c-128 0-242 63-311 160c-1 0-1 0-1 0c-14 19-25 40-35 61c-10 21-18 43-24 65c-1 6-6 10-11 10l-101 0z" horiz-adv-x="1000" />
<glyph glyph-name="spin2" unicode="&#xe810;" d="m46 144l0 0c0 0-1 0-1 0c-8 18-15 37-21 55c-6 19-11 38-15 58c-19 99-8 203 35 298c3 6 9 8 15 5c1 0 2 0 2-1l0 0l80-59c5-3 6-9 4-14c-5-12-9-25-12-37c-4-13-7-26-9-40c-11-67-3-137 22-201c2-5 1-10-3-13l0 0l-80-56c-5-4-12-3-16 3c-1 0-1 1-1 2l0 0z m119 574l0 0c1 1 1 1 1 1c15 13 30 25 46 37c16 11 33 22 51 31c89 49 192 72 297 60c6-1 10-6 10-13c-1-1-1-1-1-2l0 0l-32-94c-1-5-7-8-12-7c-14 0-27 0-40 0c-14-1-27-2-40-4c-68-11-133-40-186-84c-4-3-10-3-14 0l0 0l-79 57c-5 4-6 11-2 17c0 0 1 1 1 1l0 0z m589 65l0 0c0 0 1 0 1 0c17-10 34-21 50-32c16-12 31-25 45-38c75-69 128-160 149-262c2-6-2-12-9-13c-1 0-1 0-2 0l0 0l-100 1c-5 0-10 4-11 9c-4 13-8 25-12 38c-5 12-11 25-17 36c-31 61-79 113-137 150c-5 3-6 8-5 13l0 0l31 92c2 6 9 9 15 7c1 0 2-1 2-1l0 0z m244-535l0 0c0 0 0 0 0 0c-4-20-9-39-15-57c-7-19-14-37-22-55c-44-92-114-170-205-221c-6-3-13-1-16 4c0 1-1 2-1 2l0 0l-30 94c-2 6 1 12 6 14c11 7 22 15 32 23c11 9 21 18 30 27c49 48 84 109 101 176c1 5 6 8 11 8l0 0l98-1c6 0 11-5 11-11c0-1 0-2 0-3l0 0z m-438-395l0 0c0 0 0 0 0 0c-20-2-40-3-60-3c-20 0-40 1-59 4c-102 12-199 55-276 125c-5 4-5 11 0 16c0 0 1 1 1 1l0 0l81 58c5 3 12 2 16-2c10-8 20-16 31-23c12-7 23-14 35-20c62-31 131-45 200-41c6 1 10-3 12-8l0 0l29-92c2-6-1-12-7-14c-1-1-2-1-3-1l0 0z" horiz-adv-x="1000" />
<glyph glyph-name="spin3" unicode="&#xe811;" d="m494 850c-266 0-483-210-494-473c-1-18 13-19 13-19l84 0c16 0 19 10 19 18c10 199 176 358 378 358c107 0 204-45 273-118l-59-57c-10-12-10-27 6-31l247-50c21-5 46 11 37 44l-58 227c-2 9-16 22-29 13l-65-60c-89 91-214 148-352 148z m409-508c-16 0-19-10-19-18c-10-199-176-358-378-358c-107 0-204 45-273 118l59 57c10 12 10 27-5 31l-248 50c-21 5-46-11-37-44l58-227c2-9 16-22 30-13l64 60c89-91 214-148 352-148c266 0 483 210 494 473c1 18-13 19-13 19l-84 0z" horiz-adv-x="1000" />
<glyph glyph-name="spin4" unicode="&#xe812;" d="m498 850c-114 0-228-39-320-116l0 0c173 140 428 130 588-31c134-134 164-333 89-495c-10-29-5-50 12-68c21-21 61-23 84 0c3 3 12 15 15 24c71 180 33 393-112 539c-99 98-228 147-356 147z m-409-274c-14 0-29-5-40-16c-2-3-12-15-14-24c-71-180-34-393 112-539c185-185 479-195 676-31l0 0c-173-140-428-130-589 31c-134 134-163 333-89 495c10 29 6 50-12 68c-11 11-27 17-44 16z" horiz-adv-x="1001" />
<glyph glyph-name="spin5" unicode="&#xe813;" d="m462 850c-6 0-11-5-11-12l0-182l0 0c0-6 5-11 11-11l69 0c1 0 1 0 1 0c7 0 12 5 12 11l0 182l0 0c0 7-5 12-12 12l-69 0c0 0 0 0-1 0z m250-47c-4 1-8-2-10-5l-92-158l0 0c-3-6-1-13 5-16l60-35c0 0 0 0 0 0c6-3 13-1 16 4l91 158c3 6 2 13-4 16l-61 35c-1 1-3 1-5 1z m-429-2c-1 0-3-1-5-2l-61-35c-5-3-7-10-4-16l91-157c0 0 0 0 0 0c3-6 10-8 16-5l61 35c5 4 7 11 4 16l-91 157c0 1 0 1 0 1c-2 4-6 6-11 6z m621-163c-2 0-4 0-6-1l-157-91c0 0 0 0 0 0c-6-3-8-10-5-16l35-61c4-5 11-7 16-4l157 91c1 0 1 0 1 0c5 3 7 10 4 16l-35 61c-2 3-6 6-10 5z m-811-4c-4 0-8-2-10-6l-35-61c-3-5-1-12 4-15l158-92l0 0c6-3 13-1 16 5l35 60c0 0 0 0 0 0c3 6 1 13-4 16l-158 91c-2 1-4 2-6 2z m713-235l0 0c-6 0-11-5-11-11l0-69c0-1 0-1 0-1c0-7 5-12 11-12l182 0l0 0c7 0 12 5 12 12l0 69c0 0 0 0 0 1c0 6-5 11-12 11l-182 0z m-794-5l0 0c-7 0-12-5-12-12l0-69c0 0 0 0 0-1c0-6 5-11 12-11l182 0l0 0c6 0 11 5 11 11l0 69c0 1 0 1 0 1c0 7-5 12-11 12l-182 0z m772-153c-4 0-8-2-10-6l-35-60c0 0 0 0 0 0c-3-6-1-13 4-16l158-91c6-3 13-2 16 4l35 61c3 5 1 12-4 15l-158 92l0 0c-2 1-4 1-6 1z m-566-5c-2 0-3 0-5-1l-157-91c-1 0-1 0-1 0c-5-3-7-11-4-16l35-61c3-5 10-7 16-4l157 91c0 0 0 0 0 0c6 3 8 10 5 16l-35 61c-3 3-7 5-11 5z m468-121c-2 0-4 0-6-1l-61-35c-5-4-7-11-4-16l91-157c0-1 0-1 0-1c3-5 10-7 16-4l61 35c5 3 7 10 4 16l-91 157c0 0 0 0 0 0c-2 4-6 6-10 6z m-367-3c-4 1-8-2-10-5l-91-158c-3-6-2-13 4-16l61-35c5-3 12-1 15 4l92 158l0 0c3 6 1 13-5 16l-60 35c0 0 0 0 0 0c-2 1-4 1-6 1z m149-57c-7 0-12-5-12-11l0-182l0 0c0-7 5-12 12-12l69 0c0 0 0 0 1 0c6 0 11 5 11 12l0 182l0 0c0 6-5 11-11 11l-69 0c-1 0-1 0-1 0z" horiz-adv-x="1000" />
<glyph glyph-name="spin6" unicode="&#xe814;" d="m855 9c-189-190-520-172-705 13c-190 190-200 493-28 695c11 13 21 26 35 34c36 23 85 18 117-13c30-31 35-76 16-112c-5-9-9-15-16-22c-140-151-145-379-8-516c153-153 407-121 542 34c106 122 142 297 77 451c-83 198-305 291-510 222l0 1c236 82 492-24 588-252c70-167 37-355-72-493c-11-15-23-29-36-42z" horiz-adv-x="1000" />
<glyph glyph-name="firefox" unicode="&#xe815;" d="m504-137c-216 0-387 126-466 306c-87 200-17 521 139 663l-6-156c8 9 68 12 78-1c31 62 136 109 220 110c-32-27-106-124-99-174c40-13 103-13 136-15c10-6 8-40-12-68c-27-37-97-49-97-49l8-106l-77 38c-26-64 35-120 97-110c69 12 94 57 142 54c49-2 68-29 61-54c-7-30-60-25-60-25c-43-70-102-101-197-92c144-120 338-11 387 86c49 97 7 242-43 283c59-25 99-51 120-107c11 124-46 266-149 349c193-56 311-206 314-445c3-238-211-487-496-487z" horiz-adv-x="1000" />
<glyph glyph-name="chrome" unicode="&#xe816;" d="m498 850c-147-1-291-67-387-186l154-237c39 111 150 182 267 170l414-22c-42 84-109 157-196 208c-79 46-166 67-252 67z m-416-226c-52-79-82-173-82-274c0-250 183-457 423-494l128 252c-116-22-233 39-281 146l-188 370z m884-94l-281-15c76-89 82-221 13-317l-226-347c94-6 190 15 278 66c216 125 304 387 216 613z m-466-11c-93 0-169-76-169-169s76-169 169-169s169 76 169 169s-76 169-169 169z" horiz-adv-x="1000" />
<glyph glyph-name="opera" unicode="&#xe817;" d="m426-150c-568 0-568 1000 0 1000s567-1000 0-1000z m0 92c237 0 237 816 0 816s-238-816 0-816z" horiz-adv-x="851" />
<glyph glyph-name="ie" unicode="&#xe818;" d="m844 850c-81-1-181-46-281-106c-239 35-498-103-509-386c60 93 224 257 367 301l0-13c-179-90-571-612-361-773c91-69 311 37 345 76c29-5 59-8 89-8c201 0 371 123 424 292l-302 0c-12-56-55-92-120-92c-102 0-126 68-126 151l561 0c29 204-114 384-306 439c174 115 363 161 299-104l20 0c35 109 21 191-38 213c-18 7-37 10-58 10c-1 0-3 0-4 0z m-352-303c79 0 128-48 128-129l-252 0c0 77 46 129 124 129z m-367-422c58-83 149-145 256-171c-77-58-226-84-266-52c-48 40-36 124 10 223z" horiz-adv-x="944" />
<glyph glyph-name="crown" unicode="&#xe819;" d="m419 822c-39 0-71-32-71-72c0-40 32-72 71-72c39 0 74 32 74 72c0 40-35 72-74 72z m-48-222c-40-119-101-152-101-152s-52 146-109 232c-23-52-47-86-96-100c-1-44 51-208 55-290l600 0c3 79 56 256 56 288c-38 16-85 51-96 102c-63-86-109-231-109-231s-61 32-101 151c-27-13-78-13-99 0z m-297 222c-40 0-74-32-74-72c0-40 34-72 74-72c39 0 70 32 70 72c0 40-31 72-70 72z m47-603l0-119l600 0c0 43 0 81 0 119z m644 603c-40 0-72-32-72-72c0-40 32-72 72-72c40 0 72 32 72 72c0 40-32 72-72 72z" horiz-adv-x="837" />
<glyph glyph-name="crown-plus" unicode="&#xe81a;" d="m419 822c-39 0-71-32-71-72c0-40 32-72 71-72c39 0 74 32 74 72c0 40-35 72-74 72z m-48-222c-40-119-101-152-101-152s-52 146-109 232c-23-52-47-86-96-100c-1-44 51-208 55-290l362 0l0 72l248 0c5 72 35 158 46 216c-38 16-85 51-96 102c-63-86-109-231-109-231s-61 32-101 151c-27-13-78-13-99 0z m-297 222c-40 0-74-32-74-72c0-40 34-72 74-72c39 0 70 32 70 72c0 40-31 72-70 72z m47-603l0-119l230 0l0 110l131 0l0 9z m644 603c-40 0-72-32-72-72c0-40 32-72 72-72c40 0 72 32 72 72c0 40-32 72-72 72z m-196-816c-37 0-107 0-146 0c0 31 0 102 0 138c49 0 94 0 146 0c0 49 0 98 0 146c24 0 85 0 138 0c0-46 0-95 0-146c46 0 93 0 146 0c0-45 0-101 0-138c-43 0-98 0-146 0c0-48 0-103 0-146c-53 0-100 0-138 0c0 52 0 123 0 146z" horiz-adv-x="853" />
<glyph glyph-name="crown-minus" unicode="&#xe81b;" d="m419 822c-39 0-71-32-71-72c0-40 32-72 71-72c39 0 74 32 74 72c0 40-35 72-74 72z m-48-222c-40-119-101-152-101-152s-52 146-109 232c-23-52-47-86-96-100c-1-44 51-208 55-290l600 0c3 79 56 256 56 288c-38 16-85 51-96 102c-63-86-109-231-109-231s-61 32-101 151c-27-13-78-13-99 0z m-297 222c-40 0-74-32-74-72c0-40 34-72 74-72c39 0 70 32 70 72c0 40-31 72-70 72z m47-603l0-119l230 0l0 110l370 0l0 9z m644 603c-40 0-72-32-72-72c0-40 32-72 72-72c40 0 72 32 72 72c0 40-32 72-72 72z m-342-816c0 32 0 106 0 143c123 0 152 0 430 0c0-46 0-105 0-143c-113 0-333 0-430 0z" horiz-adv-x="853" />
<glyph glyph-name="marquee" unicode="&#xe81c;" d="m0 850l0-143l143 0l0 143l-143 0z m286 0l0-143l143 0l0 143l-143 0z m285 0l0-143l143 0l0 143l-143 0z m286 0l0-143l143 0l0 143l-143 0z m-857-286l0-143l143 0l0 143l-143 0z m857 0l0-143l143 0l0 143l-143 0z m-857-285l0-143l143 0l0 143l-143 0z m857 0l0-143l143 0l0 143l-143 0z m-857-286l0-143l143 0l0 143l-143 0z m286 0l0-143l143 0l0 143l-143 0z m285 0l0-143l143 0l0 143l-143 0z m286 0l0-143l143 0l0 143l-143 0z" horiz-adv-x="1000" />
<glyph glyph-name="glass" unicode="&#xe823;" d="m948 746q0-19-24-43l-353-353v-429h179q14 0 25-10t11-25t-11-25t-25-11h-500q-15 0-25 11t-11 25t11 25t25 10h179v429l-353 353q-24 24-24 43q0 13 10 21t21 9t24 3h786q13 0 24-3t21-9t10-21z" horiz-adv-x="1000" />
<glyph glyph-name="music" unicode="&#xe824;" d="m857 725v-625q0-28-19-50t-48-33t-58-18t-53-6t-54 6t-58 18t-48 33t-19 50t19 50t48 33t58 18t54 6q58 0 107-22v300l-429-132v-396q0-28-19-50t-48-33t-58-18t-53-6t-54 6t-58 18t-48 33t-19 50t19 50t48 34t58 17t54 6q58 0 107-21v539q0 17 10 32t28 19l464 143q7 3 16 3q22 0 37-16t16-38z" horiz-adv-x="857.1" />
<glyph glyph-name="search-1" unicode="&#xe825;" d="m643 386q0 103-74 176t-176 74t-177-74t-73-176t73-177t177-73t176 73t74 177z m286-465q0-29-22-50t-50-21q-30 0-50 21l-192 191q-99-69-222-69q-80 0-153 31t-125 84t-84 125t-31 153t31 152t84 126t125 84t153 31t152-31t126-84t84-126t31-152q0-123-70-223l192-191q21-21 21-51z" horiz-adv-x="928.6" />
<glyph glyph-name="mail" unicode="&#xe826;" d="m929 11v428q-18-20-39-37q-150-115-238-188q-28-24-46-38t-48-27t-57-13h-2q-26 0-57 13t-48 27t-46 38q-89 73-238 188q-21 17-39 37v-428q0-8 6-13t12-5h822q7 0 12 5t6 13z m0 586v14t-1 7t-1 7t-4 5t-5 4t-7 2h-822q-7 0-12-6t-6-12q0-94 82-159q108-84 224-177q4-2 20-16t25-21t25-18t28-15t24-5h2q11 0 24 5t28 15t25 18t25 21t20 16q116 93 223 177q31 24 57 65t26 73z m71 21v-607q0-37-26-63t-63-27h-822q-37 0-63 27t-26 63v607q0 37 26 63t63 26h822q36 0 63-26t26-63z" horiz-adv-x="1000" />
<glyph glyph-name="mail-alt" unicode="&#xe827;" d="m1000 454v-443q0-37-26-63t-63-27h-822q-37 0-63 27t-26 63v443q25-28 56-49q202-137 278-192q31-24 51-37t53-27t61-13h2q28 0 61 13t53 27t51 37q95 68 278 192q32 22 56 49z m0 164q0-44-27-84t-68-69q-210-146-262-181q-5-4-23-17t-30-22t-29-18t-33-15t-27-5h-2q-12 0-27 5t-33 15t-29 18t-30 22t-23 17q-51 35-147 101t-114 80q-35 23-65 64t-31 77q0 43 23 72t66 29h822q36 0 62-26t27-63z" horiz-adv-x="1000" />
<glyph glyph-name="heart" unicode="&#xe828;" d="m500-79q-15 0-25 10l-348 336q-5 5-15 15t-31 36t-38 55t-30 67t-13 77q0 123 71 192t196 70q34 0 70-12t67-33t54-38t42-38q20 20 42 38t54 38t67 33t70 12q125 0 196-70t71-192q0-123-128-251l-347-335q-11-10-25-10z" horiz-adv-x="1000" />
<glyph glyph-name="heart-empty" unicode="&#xe829;" d="m929 517q0 46-12 80t-31 55t-46 33t-52 18t-55 4t-62-14t-62-36t-48-40t-34-34q-10-13-27-13t-27 13q-14 15-34 34t-48 40t-62 36t-62 14t-55-4t-52-18t-46-33t-31-55t-12-80q0-93 105-198l324-312l324 312q105 105 105 198z m71 0q0-123-128-251l-347-335q-11-10-25-10t-25 10l-348 336q-5 5-15 15t-31 36t-38 55t-30 67t-13 77q0 123 71 192t196 70q34 0 70-12t67-33t54-38t42-38q20 20 42 38t54 38t67 33t70 12q125 0 196-70t71-192z" horiz-adv-x="1000" />
<glyph glyph-name="star" unicode="&#xe82a;" d="m929 489q0-12-15-27l-203-197l48-279q1-4 1-12q0-11-6-19t-17-8q-10 0-22 6l-251 132l-250-132q-13-6-23-6q-11 0-17 8t-6 19q0 4 1 12l48 279l-203 197q-14 15-14 27q0 21 31 26l280 40l126 254q11 23 27 23t28-23l125-254l280-40q32-5 32-26z" horiz-adv-x="928.6" />
<glyph glyph-name="star-empty" unicode="&#xe82b;" d="m634 290l171 165l-235 35l-106 213l-105-213l-236-35l171-165l-41-235l211 111l211-111z m295 199q0-12-15-27l-203-197l48-279q1-4 1-12q0-27-23-27q-10 0-22 6l-251 132l-250-132q-13-6-23-6q-11 0-17 8t-6 19q0 4 1 12l48 279l-203 197q-14 15-14 27q0 21 31 26l280 40l126 254q11 23 27 23t28-23l125-254l280-40q32-5 32-26z" horiz-adv-x="928.6" />
<glyph glyph-name="star-half" unicode="&#xe82c;" d="m464 832v-747l-250-132q-13-6-23-6q-11 0-17 8t-6 19q0 4 1 12l48 279l-203 197q-14 15-14 27q0 21 31 26l280 40l126 254q11 23 27 23z" horiz-adv-x="500" />
<glyph glyph-name="star-half-alt" unicode="&#xe82d;" d="m662 316l143 139l-198 29l-37 6l-17 34l-89 179v-537l33-17l178-94l-34 198l-7 37z m252 146l-203-197l48-279q3-19-3-29t-19-10q-9 0-22 6l-251 132l-250-132q-13-6-23-6q-12 0-19 10t-3 29l48 279l-203 197q-18 18-13 33t30 20l280 40l126 254q11 23 27 23q16 0 28-23l125-254l280-40q25-4 30-20t-13-33z" horiz-adv-x="928.6" />
<glyph glyph-name="user" unicode="&#xe82e;" d="m786 66q0-67-41-106t-108-39h-488q-68 0-108 39t-41 106q0 30 2 58t8 61t15 60t24 54t34 46t48 30t62 11q5 0 24-12t41-27t60-27t75-12t74 12t61 27t41 27t24 12q34 0 62-11t48-30t34-46t24-54t15-60t8-61t2-58z m-179 498q0-88-63-151t-151-63t-152 63t-62 151t62 152t152 63t151-63t63-152z" horiz-adv-x="785.7" />
<glyph glyph-name="users" unicode="&#xe82f;" d="m331 350q-91-3-148-71h-75q-46 0-77 22t-31 66q0 197 69 197q4 0 24-11t55-24t66-12q38 0 74 13q-2-21-2-37q0-78 45-143z m598-355q0-67-41-106t-108-39h-488q-68 0-108 39t-41 106q0 29 2 57t8 61t14 61t24 54t35 45t48 30t62 11q5 0 24-12t41-27t59-26t76-12t75 12t60 26t40 27t24 12q34 0 63-11t47-30t35-45t24-54t15-61t8-61t2-57z m-572 712q0-59-42-101t-101-42t-101 42t-42 101t42 101t101 42t101-42t42-101z m393-214q0-89-63-152t-151-62t-152 62t-63 152t63 151t152 63t151-63t63-151z m321-126q0-43-31-66t-77-22h-75q-57 68-148 71q46 65 46 143q0 16-3 37q37-13 74-13q33 0 66 12t55 24t24 11q69 0 69-197z m-71 340q0-59-42-101t-101-42t-101 42t-42 101t42 101t101 42t101-42t42-101z" horiz-adv-x="1071.4" />
<glyph glyph-name="male" unicode="&#xe830;" d="m571 457v-232q0-22-15-38t-38-16t-38 16t-16 38v196h-35v-509q0-25-19-44t-44-18t-44 18t-18 44v259h-36v-259q0-25-19-44t-44-18t-44 18t-18 44v509h-36v-196q0-22-15-38t-38-16t-38 16t-16 38v232q0 45 31 76t76 31h357q45 0 76-31t31-76z m-160 250q0-52-37-88t-88-37t-89 37t-36 88t36 89t89 36t88-36t37-89z" horiz-adv-x="571.4" />
<glyph glyph-name="female" unicode="&#xe831;" d="m714 261q0-23-15-38t-38-16q-29 0-45 24l-127 190h-25v-73l138-230q5-8 5-18q0-15-10-25t-26-11h-107v-152q0-25-18-44t-44-18h-90q-25 0-44 18t-18 44v152h-107q-15 0-25 11t-11 25q0 10 5 18l138 230v73h-25l-127-190q-16-24-44-24q-23 0-38 16t-16 38q0 16 9 29l143 215q41 59 98 59h214q58 0 98-59l143-215q9-13 9-29z m-232 446q0-52-36-88t-89-37t-88 37t-37 88t37 89t88 36t89-36t36-89z" horiz-adv-x="714.3" />
<glyph glyph-name="video" unicode="&#xe832;" d="m214-43v72q0 14-10 25t-25 10h-72q-14 0-25-10t-11-25v-72q0-14 11-25t25-11h72q14 0 25 11t10 25z m0 214v72q0 14-10 25t-25 11h-72q-14 0-25-11t-11-25v-72q0-14 11-25t25-10h72q14 0 25 10t10 25z m0 215v71q0 15-10 25t-25 11h-72q-14 0-25-11t-11-25v-71q0-15 11-25t25-11h72q14 0 25 11t10 25z m572-429v286q0 14-11 25t-25 11h-429q-14 0-25-11t-10-25v-286q0-14 10-25t25-11h429q14 0 25 11t11 25z m-572 643v71q0 15-10 25t-25 11h-72q-14 0-25-11t-11-25v-71q0-15 11-25t25-11h72q14 0 25 11t10 25z m786-643v72q0 14-11 25t-25 10h-71q-15 0-25-10t-11-25v-72q0-14 11-25t25-11h71q15 0 25 11t11 25z m-214 429v285q0 15-11 25t-25 11h-429q-14 0-25-11t-10-25v-285q0-15 10-25t25-11h429q14 0 25 11t11 25z m214-215v72q0 14-11 25t-25 11h-71q-15 0-25-11t-11-25v-72q0-14 11-25t25-10h71q15 0 25 10t11 25z m0 215v71q0 15-11 25t-25 11h-71q-15 0-25-11t-11-25v-71q0-15 11-25t25-11h71q15 0 25 11t11 25z m0 214v71q0 15-11 25t-25 11h-71q-15 0-25-11t-11-25v-71q0-15 11-25t25-11h71q15 0 25 11t11 25z m71 89v-750q0-37-26-63t-63-26h-893q-37 0-63 26t-26 63v750q0 37 26 63t63 27h893q37 0 63-27t26-63z" horiz-adv-x="1071.4" />
<glyph glyph-name="videocam" unicode="&#xe833;" d="m1000 654v-608q0-23-22-33q-7-2-14-2q-15 0-25 10l-225 225v-92q0-67-47-114t-113-47h-393q-67 0-114 47t-47 114v392q0 67 47 114t114 47h393q66 0 113-47t47-114v-92l225 225q10 10 25 10q7 0 14-3q22-9 22-32z" horiz-adv-x="1000" />
<glyph glyph-name="picture" unicode="&#xe834;" d="m357 529q0-45-31-76t-76-32t-76 32t-31 76t31 75t76 32t76-32t31-75z m572-215v-250h-786v107l178 179l90-89l285 285z m53 393h-893q-7 0-12-5t-6-13v-678q0-8 6-13t12-5h893q7 0 13 5t5 13v678q0 7-5 13t-13 5z m89-18v-678q0-37-26-63t-63-27h-893q-37 0-63 27t-26 63v678q0 37 26 63t63 27h893q37 0 63-27t26-63z" horiz-adv-x="1071.4" />
<glyph glyph-name="camera" unicode="&#xe835;" d="m536 475q66 0 113-47t47-114t-47-113t-113-47t-114 47t-47 113t47 114t114 47z m393 232q59 0 101-42t41-101v-500q0-59-41-101t-101-42h-786q-59 0-101 42t-42 101v500q0 59 42 101t101 42h125l28 76q11 27 39 47t58 20h286q29 0 57-20t39-47l29-76h125z m-393-643q103 0 176 74t74 176t-74 177t-176 73t-177-73t-73-177t73-176t177-74z" horiz-adv-x="1071.4" />
<glyph glyph-name="camera-alt" unicode="&#xe836;" d="m518 386q0 7-5 13t-13 5q-37 0-63-27t-26-63q0-8 5-13t13-5t12 5t5 13q0 23 16 38t38 16q8 0 13 5t5 13z m125-73q0-59-42-101t-101-42t-101 42t-42 101t42 101t101 42t101-42t42-101z m-572-320h858v71h-858v-71z m643 320q0 89-63 152t-151 62t-152-62t-62-152t62-151t152-63t151 63t63 151z m-571 358h214v72h-214v-72z m-72-107h858v143h-463l-35-71h-360v-72z m929 143v-714q0-30-21-51t-50-21h-858q-29 0-50 21t-21 51v714q0 30 21 51t50 21h858q29 0 50-21t21-51z" horiz-adv-x="1000" />
<glyph glyph-name="th-large" unicode="&#xe837;" d="m429 279v-215q0-29-22-50t-50-21h-286q-29 0-50 21t-21 50v215q0 29 21 50t50 21h286q29 0 50-21t22-50z m0 428v-214q0-29-22-50t-50-22h-286q-29 0-50 22t-21 50v214q0 29 21 50t50 22h286q29 0 50-22t22-50z m500-428v-215q0-29-22-50t-50-21h-286q-29 0-50 21t-21 50v215q0 29 21 50t50 21h286q29 0 50-21t22-50z m0 428v-214q0-29-22-50t-50-22h-286q-29 0-50 22t-21 50v214q0 29 21 50t50 22h286q29 0 50-22t22-50z" horiz-adv-x="928.6" />
<glyph glyph-name="th" unicode="&#xe838;" d="m286 154v-108q0-22-16-38t-38-15h-178q-23 0-38 15t-16 38v108q0 22 16 37t38 16h178q22 0 38-16t16-37z m0 285v-107q0-22-16-38t-38-15h-178q-23 0-38 15t-16 38v107q0 23 16 38t38 16h178q22 0 38-16t16-38z m357-285v-108q0-22-16-38t-38-15h-178q-23 0-38 15t-16 38v108q0 22 16 37t38 16h178q23 0 38-16t16-37z m-357 571v-107q0-23-16-38t-38-16h-178q-23 0-38 16t-16 38v107q0 22 16 38t38 16h178q22 0 38-16t16-38z m357-286v-107q0-22-16-38t-38-15h-178q-23 0-38 15t-16 38v107q0 23 16 38t38 16h178q23 0 38-16t16-38z m357-285v-108q0-22-16-38t-38-15h-178q-23 0-38 15t-16 38v108q0 22 16 37t38 16h178q23 0 38-16t16-37z m-357 571v-107q0-23-16-38t-38-16h-178q-23 0-38 16t-16 38v107q0 22 16 38t38 16h178q23 0 38-16t16-38z m357-286v-107q0-22-16-38t-38-15h-178q-23 0-38 15t-16 38v107q0 23 16 38t38 16h178q23 0 38-16t16-38z m0 286v-107q0-23-16-38t-38-16h-178q-23 0-38 16t-16 38v107q0 22 16 38t38 16h178q23 0 38-16t16-38z" horiz-adv-x="1000" />
<glyph glyph-name="th-list" unicode="&#xe839;" d="m286 154v-108q0-22-16-38t-38-15h-178q-23 0-38 15t-16 38v108q0 22 16 37t38 16h178q22 0 38-16t16-37z m0 285v-107q0-22-16-38t-38-15h-178q-23 0-38 15t-16 38v107q0 23 16 38t38 16h178q22 0 38-16t16-38z m714-285v-108q0-22-16-38t-38-15h-535q-23 0-38 15t-16 38v108q0 22 16 37t38 16h535q23 0 38-16t16-37z m-714 571v-107q0-23-16-38t-38-16h-178q-23 0-38 16t-16 38v107q0 22 16 38t38 16h178q22 0 38-16t16-38z m714-286v-107q0-22-16-38t-38-15h-535q-23 0-38 15t-16 38v107q0 23 16 38t38 16h535q23 0 38-16t16-38z m0 286v-107q0-23-16-38t-38-16h-535q-23 0-38 16t-16 38v107q0 22 16 38t38 16h535q23 0 38-16t16-38z" horiz-adv-x="1000" />
<glyph glyph-name="ok" unicode="&#xe83a;" d="m932 534q0-22-15-38l-404-404l-76-76q-16-15-38-15t-38 15l-76 76l-202 202q-15 16-15 38t15 38l76 76q16 16 38 16t38-16l164-165l366 367q16 16 38 16t38-16l76-76q15-16 15-38z" horiz-adv-x="1000" />
<glyph glyph-name="ok-circled" unicode="&#xe83b;" d="m716 440q0 16-10 26l-50 50q-11 11-25 11t-26-11l-227-227l-126 126q-11 11-25 11t-26-11l-50-50q-10-10-10-26q0-15 10-25l202-202q10-10 25-10q15 0 25 10l303 303q10 10 10 25z m141-90q0-117-57-215t-156-156t-215-58t-216 58t-156 156t-57 215t57 215t156 156t216 58t215-58t156-156t57-215z" horiz-adv-x="857.1" />
<glyph glyph-name="ok-circled2" unicode="&#xe83c;" d="m653 396l-235-235q-11-11-25-11t-25 11l-164 164q-11 10-11 25t11 25l57 57q10 11 25 11t25-11l82-82l153 153q11 11 25 11t26-11l56-56q11-11 11-26t-11-25z m79-46q0 83-41 152t-110 111t-152 41t-153-41t-110-111t-41-152t41-152t110-111t153-41t152 41t110 111t41 152z m125 0q0-117-57-215t-156-156t-215-58t-216 58t-156 156t-57 215t57 215t156 156t216 58t215-58t156-156t57-215z" horiz-adv-x="857.1" />
<glyph glyph-name="ok-squared" unicode="&#xe83d;" d="m382 125l343 343q10 10 10 25t-10 25l-57 57q-11 10-25 10t-25-10l-261-261l-118 118q-10 11-25 11t-25-11l-57-57q-10-11-10-25t10-25l200-200q11-11 25-11t25 11z m475 493v-536q0-66-47-113t-114-48h-535q-67 0-114 48t-47 113v536q0 66 47 113t114 48h535q67 0 114-48t47-113z" horiz-adv-x="857.1" />
<glyph glyph-name="cancel" unicode="&#xe83e;" d="m724 112q0-22-15-38l-76-76q-16-15-38-15t-38 15l-164 164l-164-164q-16-15-38-15t-38 15l-76 76q-16 16-16 38t16 38l164 164l-164 164q-16 16-16 38t16 38l76 76q16 16 38 16t38-16l164-164l164 164q16 16 38 16t38-16l76-76q15-15 15-38t-15-38l-164-164l164-164q15-15 15-38z" horiz-adv-x="785.7" />
<glyph glyph-name="cancel-circled" unicode="&#xe83f;" d="m641 224q0 14-10 25l-101 101l101 101q10 11 10 25q0 15-10 26l-51 50q-10 11-25 11q-15 0-25-11l-101-101l-101 101q-11 11-26 11q-15 0-25-11l-50-50q-11-11-11-26q0-14 11-25l101-101l-101-101q-11-11-11-25q0-15 11-26l50-50q10-11 25-11q15 0 26 11l101 101l101-101q10-11 25-11q15 0 25 11l51 50q10 11 10 26z m216 126q0-117-57-215t-156-156t-215-58t-216 58t-156 156t-57 215t57 215t156 156t216 58t215-58t156-156t57-215z" horiz-adv-x="857.1" />
<glyph glyph-name="cancel-circled2" unicode="&#xe840;" d="m612 248l-81-82q-6-5-13-5t-13 5l-76 77l-77-77q-5-5-13-5t-13 5l-81 82q-6 5-6 13t6 13l76 76l-76 76q-6 6-6 13t6 13l81 82q6 5 13 5t13-5l77-77l76 77q6 5 13 5t13-5l81-82q6-5 6-13t-6-13l-76-76l76-76q6-6 6-13t-6-13z m120 102q0 83-41 152t-110 111t-152 41t-153-41t-110-111t-41-152t41-152t110-111t153-41t152 41t110 111t41 152z m125 0q0-117-57-215t-156-156t-215-58t-216 58t-156 156t-57 215t57 215t156 156t216 58t215-58t156-156t57-215z" horiz-adv-x="857.1" />
<glyph glyph-name="plus" unicode="&#xe841;" d="m786 439v-107q0-22-16-38t-38-15h-232v-233q0-22-16-38t-38-15h-107q-22 0-38 15t-15 38v233h-232q-23 0-38 15t-16 38v107q0 23 16 38t38 16h232v232q0 22 15 38t38 16h107q23 0 38-16t16-38v-232h232q22 0 38-16t16-38z" horiz-adv-x="785.7" />
<glyph glyph-name="plus-circled" unicode="&#xe842;" d="m679 314v72q0 14-11 25t-25 10h-143v143q0 15-11 25t-25 11h-71q-15 0-25-11t-11-25v-143h-143q-14 0-25-10t-10-25v-72q0-14 10-25t25-10h143v-143q0-15 11-25t25-11h71q15 0 25 11t11 25v143h143q14 0 25 10t11 25z m178 36q0-117-57-215t-156-156t-215-58t-216 58t-156 156t-57 215t57 215t156 156t216 58t215-58t156-156t57-215z" horiz-adv-x="857.1" />
<glyph glyph-name="plus-squared" unicode="&#xe843;" d="m714 314v72q0 14-10 25t-25 10h-179v179q0 14-11 25t-25 11h-71q-15 0-25-11t-11-25v-179h-178q-15 0-26-10t-10-25v-72q0-14 10-25t26-10h178v-179q0-15 11-25t25-11h71q15 0 25 11t11 25v179h179q14 0 25 10t10 25z m143 304v-536q0-66-47-113t-114-48h-535q-67 0-114 48t-47 113v536q0 66 47 113t114 48h535q67 0 114-48t47-113z" horiz-adv-x="857.1" />
<glyph glyph-name="plus-squared-small" unicode="&#xe844;" d="m500 332v-36q0-7-5-12t-13-5h-125v-125q0-8-5-13t-13-5h-35q-8 0-13 5t-5 13v125h-125q-8 0-13 5t-5 12v36q0 8 5 13t13 5h125v125q0 8 5 13t13 5h35q8 0 13-5t5-13v-125h125q8 0 13-5t5-13z m71-214v393q0 22-15 38t-38 15h-393q-22 0-38-15t-16-38v-393q0-22 16-38t38-16h393q22 0 38 16t15 38z m72 393v-393q0-51-37-88t-88-37h-393q-52 0-88 37t-37 88v393q0 52 37 88t88 37h393q52 0 88-37t37-88z" horiz-adv-x="642.9" />
<glyph glyph-name="minus" unicode="&#xe845;" d="m786 439v-107q0-22-16-38t-38-15h-678q-23 0-38 15t-16 38v107q0 23 16 38t38 16h678q22 0 38-16t16-38z" horiz-adv-x="785.7" />
<glyph glyph-name="minus-circled" unicode="&#xe846;" d="m679 314v72q0 14-11 25t-25 10h-429q-14 0-25-10t-10-25v-72q0-14 10-25t25-10h429q14 0 25 10t11 25z m178 36q0-117-57-215t-156-156t-215-58t-216 58t-156 156t-57 215t57 215t156 156t216 58t215-58t156-156t57-215z" horiz-adv-x="857.1" />
<glyph glyph-name="minus-squared" unicode="&#xe847;" d="m714 314v72q0 14-10 25t-25 10h-500q-15 0-26-10t-10-25v-72q0-14 10-25t26-10h500q14 0 25 10t10 25z m143 304v-536q0-66-47-113t-114-48h-535q-67 0-114 48t-47 113v536q0 66 47 113t114 48h535q67 0 114-48t47-113z" horiz-adv-x="857.1" />
<glyph glyph-name="minus-squared-alt" unicode="&#xe848;" d="m643 404v-36q0-8-5-13t-13-5h-464q-8 0-13 5t-5 13v36q0 7 5 12t13 5h464q8 0 13-5t5-12z m71-250v464q0 37-26 63t-63 26h-464q-37 0-63-26t-27-63v-464q0-37 27-64t63-26h464q37 0 63 26t26 64z m72 464v-464q0-67-47-114t-114-47h-464q-67 0-114 47t-47 114v464q0 66 47 113t114 48h464q66 0 114-48t47-113z" horiz-adv-x="785.7" />
<glyph glyph-name="minus-squared-small" unicode="&#xe849;" d="m518 636q52 0 88-37t37-88v-393q0-51-37-88t-88-37h-393q-52 0-88 37t-37 88v393q0 52 37 88t88 37h393z m53-518v393q0 22-15 38t-38 15h-393q-22 0-38-15t-16-38v-393q0-22 16-38t38-16h393q22 0 38 16t15 38z m-89 232q8 0 13-5t5-13v-36q0-7-5-12t-13-5h-321q-8 0-13 5t-5 12v36q0 8 5 13t13 5h321z" horiz-adv-x="642.9" />
<glyph glyph-name="help" unicode="&#xe84a;" d="m393 149v-134q0-9-7-15t-15-7h-134q-9 0-16 7t-7 15v134q0 9 7 16t16 6h134q8 0 15-6t7-16z m176 335q0-30-8-56t-20-43t-31-33t-32-25t-34-19q-23-13-38-37t-15-37q0-10-7-18t-16-9h-134q-8 0-14 10t-6 21v25q0 47 37 88t79 60q33 15 47 32t14 42q0 23-26 41t-60 18q-36 0-60-16q-20-14-60-64q-7-9-17-9q-7 0-14 4l-92 70q-7 6-8 14t3 16q89 148 259 148q44 0 90-17t81-47t59-71t23-88z" horiz-adv-x="571.4" />
<glyph glyph-name="help-circled" unicode="&#xe84b;" d="m500 82v107q0 8-5 13t-13 5h-107q-8 0-13-5t-5-13v-107q0-8 5-13t13-5h107q8 0 13 5t5 13z m143 375q0 49-31 91t-77 65t-95 23q-136 0-207-119q-9-14 4-24l74-55q4-4 10-4q9 0 14 7q30 38 48 51q19 14 48 14q27 0 48-15t21-33q0-21-11-34t-38-25q-35-16-65-48t-29-70v-20q0-8 5-13t13-5h107q8 0 13 5t5 13q0 10 12 27t30 28q18 10 28 16t25 19t25 27t16 34t7 45z m214-107q0-117-57-215t-156-156t-215-58t-216 58t-156 156t-57 215t57 215t156 156t216 58t215-58t156-156t57-215z" horiz-adv-x="857.1" />
<glyph glyph-name="info-circled" unicode="&#xe84c;" d="m571 82v89q0 8-5 13t-12 5h-54v286q0 8-5 13t-13 5h-178q-8 0-13-5t-5-13v-89q0-8 5-13t13-5h53v-179h-53q-8 0-13-5t-5-13v-89q0-8 5-13t13-5h250q7 0 12 5t5 13z m-71 500v89q0 8-5 13t-13 5h-107q-8 0-13-5t-5-13v-89q0-8 5-13t13-5h107q8 0 13 5t5 13z m357-232q0-117-57-215t-156-156t-215-58t-216 58t-156 156t-57 215t57 215t156 156t216 58t215-58t156-156t57-215z" horiz-adv-x="857.1" />
<glyph glyph-name="info" unicode="&#xe84d;" d="m357 100v-71q0-15-10-26t-26-10h-285q-15 0-25 10t-11 26v71q0 14 11 25t25 11h35v214h-35q-15 0-25 11t-11 25v71q0 15 11 25t25 11h214q14 0 25-11t11-25v-321h35q15 0 26-11t10-25z m-71 643v-107q0-15-11-25t-25-11h-143q-14 0-25 11t-11 25v107q0 14 11 25t25 11h143q14 0 25-11t11-25z" horiz-adv-x="357.1" />
<glyph glyph-name="home" unicode="&#xe84e;" d="m786 296v-267q0-15-11-26t-25-10h-214v214h-143v-214h-214q-15 0-26 10t-10 26v267q0 1 0 2t0 2l321 264l321-264q1-1 1-4z m124 39l-34-41q-5-5-12-7h-2q-7 0-12 4l-386 322l-386-322q-7-4-13-4q-8 2-12 7l-35 41q-4 5-3 13t6 12l401 334q18 15 42 15t43-15l136-114v109q0 8 5 13t13 5h107q8 0 13-5t5-13v-227l122-102q5-4 6-12t-4-13z" horiz-adv-x="928.6" />
<glyph glyph-name="link" unicode="&#xe84f;" d="m812 171q0 23-15 38l-116 116q-16 16-38 16q-24 0-40-18q1-1 10-10t12-12t9-11t7-14t2-15q0-23-16-38t-38-16q-8 0-15 2t-14 7t-11 9t-12 12t-10 10q-19-17-19-40q0-23 16-38l115-116q15-15 38-15q22 0 38 15l82 81q15 16 15 37z m-392 394q0 22-15 38l-115 115q-16 16-38 16q-22 0-38-15l-82-82q-16-15-16-37q0-22 16-38l116-116q15-15 38-15q23 0 40 17q-2 2-11 10t-12 12t-8 11t-7 14t-2 16q0 22 15 38t38 15q9 0 16-2t14-7t10-8t12-12t11-11q18 17 18 41z m500-394q0-67-48-113l-82-81q-46-47-113-47q-68 0-114 48l-115 115q-46 47-46 114q0 68 49 116l-49 49q-48-49-116-49q-67 0-114 47l-116 116q-47 47-47 114t47 113l82 82q47 46 114 46q67 0 113-47l115-116q47-46 47-113q0-69-49-117l49-49q48 49 116 49q67 0 114-47l116-116q47-47 47-114z" horiz-adv-x="928.6" />
<glyph glyph-name="unlink" unicode="&#xe850;" d="m245 141l-143-143q-5-5-13-5q-6 0-13 5q-5 5-5 13t5 13l143 142q6 5 13 5t13-5q5-5 5-12t-5-13z m94-23v-179q0-8-5-13t-13-5t-12 5t-5 13v179q0 8 5 13t12 5t13-5t5-13z m-125 125q0-8-5-13t-13-5h-178q-8 0-13 5t-5 13t5 13t13 5h178q8 0 13-5t5-13z m706-72q0-67-48-113l-82-81q-46-47-113-47q-68 0-114 48l-186 187q-12 11-24 31l134 10l152-153q15-15 38-15t38 15l82 81q15 16 15 37q0 23-15 38l-153 154l10 133q20-12 31-23l188-188q47-48 47-114z m-345 404l-133-10l-152 153q-16 16-38 16q-22 0-38-15l-82-82q-16-15-16-37q0-22 16-38l153-153l-10-134q-20 12-32 24l-187 187q-47 48-47 114q0 67 47 113l82 82q47 46 114 46q67 0 113-47l187-187q12-12 23-32z m354-46q0-8-6-13t-12-5h-179q-8 0-13 5t-5 13t5 12t13 5h179q7 0 12-5t6-12z m-304 303v-178q0-8-5-13t-13-5t-13 5t-5 13v178q0 8 5 13t13 5t13-5t5-13z m227-84l-143-143q-6-5-13-5t-12 5q-5 6-5 13t5 13l142 142q6 6 13 6t13-6q5-5 5-12t-5-13z" horiz-adv-x="928.6" />
<glyph glyph-name="link-ext" unicode="&#xe851;" d="m786 332v-178q0-67-47-114t-114-47h-464q-67 0-114 47t-47 114v464q0 66 47 113t114 48h393q7 0 12-6t5-12v-36q0-8-5-13t-12-5h-393q-37 0-63-26t-27-63v-464q0-37 27-64t63-26h464q37 0 63 26t26 64v178q0 8 5 13t13 5h36q8 0 13-5t5-13z m214 482v-285q0-15-11-26t-25-10t-25 10l-98 99l-364-364q-5-6-13-6t-13 6l-63 63q-6 6-6 13t6 13l364 364l-99 98q-10 11-10 25t10 25t26 11h285q15 0 25-11t11-25z" horiz-adv-x="1000" />
<glyph glyph-name="link-ext-alt" unicode="&#xe852;" d="m714 332v268q0 14-10 25t-25 11h-268q-24 0-33-22q-10-23 8-39l80-81l-298-297q-11-11-11-26t11-25l57-57q10-10 25-10t25 10l298 298l80-80q10-11 26-11q6 0 13 3q22 10 22 33z m143 286v-536q0-66-47-113t-114-48h-535q-67 0-114 48t-47 113v536q0 66 47 113t114 48h535q67 0 114-48t47-113z" horiz-adv-x="857.1" />
<glyph glyph-name="attach" unicode="&#xe853;" d="m783 77q0-65-44-109t-109-44q-75 0-131 55l-434 433q-63 65-63 152q0 88 62 150t150 62q88 0 152-63l338-338q5-6 5-12q0-9-17-26t-26-17q-7 0-13 5l-338 339q-44 43-101 43q-59 0-100-42t-40-101q0-58 42-101l433-433q35-35 81-35q36 0 59 23t24 59q0 46-36 81l-324 324q-14 14-33 14q-16 0-27-11t-11-27q0-18 14-33l229-228q6-6 6-13q0-9-18-26t-26-17q-7 0-12 5l-229 229q-35 34-35 83q0 46 32 78t77 32q49 0 83-36l325-324q55-54 55-131z" horiz-adv-x="785.7" />
<glyph glyph-name="lock" unicode="&#xe854;" d="m179 421h285v108q0 59-42 101t-101 41t-101-41t-41-101v-108z m464-53v-322q0-22-16-38t-38-15h-535q-23 0-38 15t-16 38v322q0 22 16 38t38 15h17v108q0 102 74 176t176 74t177-74t73-176v-108h18q23 0 38-15t16-38z" horiz-adv-x="642.9" />
<glyph glyph-name="lock-open" unicode="&#xe855;" d="m929 529v-143q0-15-11-25t-25-11h-36q-14 0-25 11t-11 25v143q0 59-41 101t-101 41t-101-41t-42-101v-108h53q23 0 38-15t16-38v-322q0-22-16-38t-38-15h-535q-23 0-38 15t-16 38v322q0 22 16 38t38 15h375v108q0 103 73 176t177 74t176-74t74-176z" horiz-adv-x="928.6" />
<glyph glyph-name="lock-open-alt" unicode="&#xe856;" d="m589 421q23 0 38-15t16-38v-322q0-22-16-38t-38-15h-535q-23 0-38 15t-16 38v322q0 22 16 38t38 15h17v179q0 103 74 177t176 73t177-73t73-177q0-15-10-25t-25-11h-36q-15 0-25 11t-11 25q0 59-42 101t-101 42t-101-42t-41-101v-179h410z" horiz-adv-x="642.9" />
<glyph glyph-name="pin" unicode="&#xe857;" d="m268 368v250q0 8-5 13t-13 5t-13-5t-5-13v-250q0-8 5-13t13-5t13 5t5 13z m375-197q0-14-11-25t-25-10h-239l-29-270q-1-7-6-11t-11-5h-1q-15 0-17 15l-43 271h-225q-15 0-25 10t-11 25q0 69 44 124t99 55v286q-29 0-50 21t-22 50t22 50t50 22h357q29 0 50-22t21-50t-21-50t-50-21v-286q55 0 99-55t44-124z" horiz-adv-x="642.9" />
<glyph glyph-name="eye" unicode="&#xe858;" d="m929 314q-85 132-213 197q34-58 34-125q0-104-73-177t-177-73t-177 73t-73 177q0 67 34 125q-128-65-213-197q75-114 187-182t242-68t242 68t187 182z m-402 215q0 11-8 18t-19 8q-70 0-120-50t-50-119q0-11 8-19t19-8t19 8t8 19q0 48 34 82t82 34q11 0 19 8t8 19z m473-215q0-19-11-38q-78-129-210-206t-279-77t-279 77t-210 206q-11 19-11 38t11 39q78 128 210 205t279 78t279-78t210-205q11-20 11-39z" horiz-adv-x="1000" />
<glyph glyph-name="eye-off" unicode="&#xe859;" d="m310 105l43 79q-48 35-76 88t-27 114q0 67 34 125q-128-65-213-197q94-144 239-209z m217 424q0 11-8 18t-19 8q-70 0-120-50t-50-119q0-11 8-19t19-8t19 8t8 19q0 48 34 82t82 34q11 0 19 8t8 19z m202 106q0-4 0-5q-59-105-176-316t-176-316l-28-50q-5-9-15-9q-7 0-75 39q-9 6-9 16q0 7 25 49q-80 36-147 96t-117 137q-11 17-11 38t11 39q86 131 212 207t277 76q50 0 100-10l31 54q5 9 15 9q3 0 10-3t18-9t18-10t17-10t11-7q9-5 9-15z m21-249q0-78-44-142t-117-92l156 281q5-26 5-47z m250-72q0-19-11-38q-22-36-61-81q-84-96-194-149t-234-53l41 74q119 10 219 76t169 171q-65 100-158 164l35 63q53-36 102-86t81-102q11-19 11-39z" horiz-adv-x="1000" />
<glyph glyph-name="tag" unicode="&#xe85a;" d="m250 600q0 30-21 50t-50 21t-51-21t-21-50t21-51t51-20t50 20t21 51z m595-321q0-30-20-51l-274-274q-22-21-51-21q-30 0-50 21l-399 399q-21 21-36 57t-15 65v232q0 29 21 50t50 22h233q29 0 65-15t57-36l399-399q20-21 20-50z" horiz-adv-x="857.1" />
<glyph glyph-name="tags" unicode="&#xe85b;" d="m250 600q0 30-21 50t-50 21t-51-21t-21-50t21-51t51-20t50 20t21 51z m595-321q0-30-20-51l-274-274q-22-21-51-21q-30 0-50 21l-399 399q-21 21-36 57t-15 65v232q0 29 21 50t50 22h233q29 0 65-15t57-36l399-399q20-21 20-50z m215 0q0-30-21-51l-274-274q-22-21-51-21q-20 0-33 8t-29 25l262 262q21 21 21 51q0 29-21 50l-399 399q-21 21-57 36t-65 15h125q29 0 65-15t57-36l399-399q21-21 21-50z" horiz-adv-x="1071.4" />
<glyph glyph-name="bookmark" unicode="&#xe85c;" d="m650 779q12 0 24-6q18-7 29-22t11-35v-719q0-19-11-35t-29-23q-11-4-24-4q-27 0-47 18l-246 236l-246-236q-20-19-46-19q-13 0-25 5q-18 8-29 23t-11 35v719q0 19 11 35t29 22q12 6 25 6h585z" horiz-adv-x="714.3" />
<glyph glyph-name="bookmark-empty" unicode="&#xe85d;" d="m643 707h-572v-693l236 227l50 47l50-47l236-227v693z m7 72q12 0 24-6q18-7 29-22t11-35v-719q0-19-11-35t-29-23q-11-4-24-4q-27 0-47 18l-246 236l-246-236q-20-19-46-19q-13 0-25 5q-18 8-29 23t-11 35v719q0 19 11 35t29 22q12 6 25 6h585z" horiz-adv-x="714.3" />
<glyph glyph-name="flag" unicode="&#xe85e;" d="m179 707q0-40-36-61v-707q0-7-5-12t-13-6h-36q-7 0-12 6t-6 12v707q-35 21-35 61q0 30 21 51t50 21t51-21t21-51z m821-36v-425q0-14-7-22t-22-15q-120-65-206-65q-34 0-69 12t-60 27t-65 27t-79 12q-108 0-259-81q-10-5-19-5q-14 0-25 10t-10 25v414q0 18 17 31q12 8 44 24q132 67 235 67q60 0 111-16t123-49q21-11 49-11q30 0 65 12t62 26t49 26t30 12q15 0 25-11t11-25z" horiz-adv-x="1000" />
<glyph glyph-name="flag-empty" unicode="&#xe85f;" d="m929 267v344q-95-51-171-51q-46 0-81 18q-56 27-103 42t-99 16q-97 0-225-71v-334q137 63 242 63q30 0 57-5t55-14t43-17t46-22l16-8q24-13 56-13q67 0 164 52z m-750 440q0-19-10-36t-26-25v-707q0-8-5-13t-13-5h-36q-8 0-13 5t-5 13v707q-16 9-26 25t-9 36q0 30 21 51t50 21t51-21t21-51z m821-36v-425q0-22-20-32q-5-3-9-5q-122-65-206-65q-49 0-88 20l-16 7q-35 19-55 27t-51 16t-63 8q-57 0-132-24t-127-57q-9-5-19-5q-9 0-18 4q-17 11-17 31v414q0 20 17 31q19 12 44 24t63 29t85 27t87 11q62 0 116-17t117-48q21-11 50-11q68 0 173 63q12 6 17 9q17 9 35-1q17-11 17-31z" horiz-adv-x="1000" />
<glyph glyph-name="flag-checkered" unicode="&#xe860;" d="m464 292v107q-101-9-214-65v-103q114 53 214 61z m0 233v110q-96-4-214-70v-106q120 62 214 66z m465-258v102q-132-64-215-39v125q-11 3-22 8q-2 2-18 10t-19 9t-18 9t-19 8t-18 7t-20 7t-20 5t-22 4t-22 3t-24 1q-13 0-28-2v-124h11q57 0 107-16t110-46q11-5 22-8v-105q24-10 51-10q67 0 164 52z m0 238v106q-95-51-171-51q-25 0-44 4v-109q83-24 215 50z m-750 202q0-19-10-36t-26-25v-707q0-8-5-13t-13-5h-36q-8 0-13 5t-5 13v707q-16 9-26 25t-9 36q0 30 21 51t50 21t51-21t21-51z m821-36v-425q0-22-20-32q-5-3-9-5q-122-65-206-65q-49 0-88 20l-16 7q-35 19-55 27t-51 16t-63 8q-57 0-132-24t-127-57q-9-5-19-5q-9 0-18 4q-17 11-17 31v414q0 20 17 31q19 12 44 24t63 29t85 27t87 11q62 0 116-17t117-48q21-11 50-11q68 0 173 63q12 6 17 9q17 9 35-1q17-11 17-31z" horiz-adv-x="1000" />
<glyph glyph-name="thumbs-up" unicode="&#xe861;" d="m143 100q0 14-11 25t-25 11t-25-11t-11-25t11-25t25-11t25 11t11 25z m643 321q0 29-22 50t-50 22h-196q0 32 27 89t26 89q0 55-17 81t-72 27q-14-15-21-48t-17-70t-33-61q-13-13-43-51q-3-3-13-17t-18-22t-19-24t-22-25t-22-20t-22-15t-20-5h-18v-357h18q7 0 18-1t18-4t21-6t20-7t20-7t16-5q118-41 191-41h67q107 0 107 93q0 15-2 31q16 9 26 30t10 41t-10 38q29 28 29 66q0 14-5 31t-14 27q18 1 30 26t12 45z m71 1q0-50-27-91q5-18 5-39q0-42-21-80q1-12 1-24q0-56-33-99q0-78-48-123t-126-45h-72q-54 0-106 13t-121 37q-65 22-77 22h-161q-29 0-50 21t-21 50v357q0 30 21 51t50 21h153q20 13 77 86q32 42 59 72q14 14 20 47t17 71t35 60q22 21 50 21q47 0 84-18t57-57t20-104q0-52-27-107h98q58 0 101-42t42-100z" horiz-adv-x="857.1" />
<glyph glyph-name="thumbs-down" unicode="&#xe862;" d="m143 600q0 14-11 25t-25 11t-25-11t-11-25t11-25t25-11t25 11t11 25z m643-321q0 19-12 45t-30 26q8 9 14 26t5 31q0 39-29 67q10 18 10 38t-10 41t-26 30q2 16 2 31q0 47-27 70t-76 23h-71q-73 0-191-41q-3-1-16-6t-20-6t-20-7t-21-6t-18-4t-18-1h-18v-357h18q9 0 20-5t22-16t22-19t22-25t19-24t18-22t13-17q30-38 43-51q23-24 33-61t17-70t21-48q54 0 72 27t17 81q0 32-26 89t-27 89h196q28 0 50 22t22 50z m71-1q0-57-42-100t-101-42h-98q27-56 27-107q0-66-20-104q-19-39-57-57t-84-18q-28 0-50 21q-19 18-30 45t-14 51t-10 47t-18 36q-26 28-59 71q-57 73-77 86h-153q-29 0-50 21t-21 51v357q0 29 21 50t50 21h161q12 0 77 22q72 25 125 37t111 13h63q78 0 126-45t48-120v-3q33-43 33-99q0-12-1-24q21-38 21-81q0-20-5-38q27-41 27-91z" horiz-adv-x="857.1" />
<glyph glyph-name="thumbs-up-alt" unicode="&#xe863;" d="m143 100q0 14-11 25t-25 11q-15 0-25-11t-11-25q0-15 11-25t25-11q15 0 25 11t11 25z m89 286v-357q0-15-10-26t-26-10h-160q-15 0-25 10t-11 26v357q0 14 11 25t25 10h160q15 0 26-10t10-25z m661 0q0-48-31-83q8-25 8-43q2-42-24-76q10-32 0-66q-8-31-30-52q5-63-27-101q-36-42-110-44h-72q-37 0-80 9t-68 16t-67 22q-69 24-88 25q-15 0-26 11t-10 25v357q0 14 10 25t24 11q13 1 42 33t57 67q38 49 56 67q10 10 17 27t10 27t8 34q4 22 7 34t10 29t19 28q11 11 26 11q25 0 46-6t33-15t22-22t14-26t6-27t3-26t1-21q0-22-6-43t-10-33t-16-31q-1-4-5-11t-6-12t-5-13h155q43 0 75-32t32-75z" horiz-adv-x="928.6" />
<glyph glyph-name="thumbs-down-alt" unicode="&#xe864;" d="m143 529q0-15-11-26t-25-10q-15 0-25 10t-11 26q0 15 11 25t25 10q15 0 25-10t11-25z m89-286v357q0 14-10 25t-26 11h-160q-15 0-25-11t-11-25v-357q0-15 11-25t25-11h160q15 0 26 11t10 25z m630 83q31-34 31-83q-1-44-32-75t-75-32h-155q2-8 5-14t6-12t5-10q10-21 15-32t11-32t6-43q0-14-1-22t-3-25t-6-28t-14-25t-22-23t-33-14t-46-6q-15 0-26 11q-11 11-19 28t-10 29t-7 34q-5 23-8 33t-10 27t-17 27q-18 19-56 67q-28 36-57 68t-42 33q-14 1-24 11t-10 24v358q0 14 10 25t26 11q19 0 88 24q43 15 67 22t68 16t80 9h72q74-1 110-43q32-39 27-101q22-21 30-53q10-34 0-65q26-34 24-77q0-17-8-42z" horiz-adv-x="928.6" />
<glyph glyph-name="download" unicode="&#xe865;" d="m714 100q0 14-10 25t-25 11t-26-11t-10-25t10-25t26-11t25 11t10 25z m143 0q0 14-11 25t-25 11t-25-11t-10-25t10-25t25-11t25 11t11 25z m72 125v-179q0-22-16-38t-38-15h-821q-23 0-38 15t-16 38v179q0 22 16 38t38 16h259l75-76q33-32 76-32t76 32l76 76h259q22 0 38-16t16-38z m-182 317q10-22-8-39l-250-250q-10-10-25-10t-25 10l-250 250q-17 17-8 39q10 22 33 22h143v250q0 15 11 25t25 11h143q14 0 25-11t10-25v-250h143q24 0 33-22z" horiz-adv-x="928.6" />
<glyph glyph-name="upload" unicode="&#xe866;" d="m714 29q0 14-10 25t-25 10t-26-10t-10-25t10-26t26-10t25 10t10 26z m143 0q0 14-11 25t-25 10t-25-10t-10-25t10-26t25-10t25 10t11 26z m72 125v-179q0-22-16-38t-38-16h-821q-23 0-38 16t-16 38v179q0 22 16 37t38 16h238q12-31 39-51t62-20h143q34 0 61 20t40 51h238q22 0 38-16t16-37z m-182 361q-9-22-33-22h-143v-250q0-15-10-25t-25-11h-143q-15 0-25 11t-11 25v250h-143q-23 0-33 22q-9 22 8 39l250 250q10 10 25 10t25-10l250-250q18-17 8-39z" horiz-adv-x="928.6" />
<glyph glyph-name="download-cloud" unicode="&#xe867;" d="m714 332q0 8-5 13t-13 5h-125v196q0 8-5 13t-12 5h-108q-7 0-12-5t-5-13v-196h-125q-8 0-13-5t-5-13q0-8 5-13l196-196q5-5 13-5t13 5l196 196q5 6 5 13z m357-125q0-89-62-151t-152-63h-607q-103 0-177 73t-73 177q0 72 39 134t105 92q-1 17-1 24q0 118 84 202t202 84q87 0 159-49t105-129q40 35 93 35q59 0 101-42t42-101q0-43-23-77q72-17 119-76t46-133z" horiz-adv-x="1071.4" />
<glyph glyph-name="upload-cloud" unicode="&#xe868;" d="m714 368q0 8-5 13l-196 196q-5 5-13 5t-13-5l-196-196q-5-6-5-13q0-8 5-13t13-5h125v-196q0-8 5-13t12-5h108q7 0 12 5t5 13v196h125q8 0 13 5t5 13z m357-161q0-89-62-151t-152-63h-607q-103 0-177 73t-73 177q0 72 39 134t105 92q-1 17-1 24q0 118 84 202t202 84q87 0 159-49t105-129q40 35 93 35q59 0 101-42t42-101q0-43-23-77q72-17 119-76t46-133z" horiz-adv-x="1071.4" />
<glyph glyph-name="reply" unicode="&#xe869;" d="m1000 225q0-93-71-252q-2-4-6-13t-7-17t-8-12q-6-10-15-10q-9 0-13 6t-5 14q0 5 1 15t2 13q3 38 3 68q0 57-10 101t-27 78t-45 56t-59 39t-74 24t-86 12t-98 3h-125v-143q0-14-10-25t-26-11t-25 11l-285 286q-11 10-11 25t11 25l285 286q11 10 25 10t26-10t10-25v-143h125q398 0 488-225q30-75 30-186z" horiz-adv-x="1000" />
<glyph glyph-name="reply-all" unicode="&#xe86a;" d="m357 246v-39q0-23-22-33q-7-3-14-3q-15 0-25 11l-285 286q-11 10-11 25t11 25l285 286q16 17 39 7q22-9 22-32v-39l-221-222q-11-11-11-25t11-25z m643-21q0-32-10-75t-21-77t-27-69t-22-51l-12-22q-4-10-15-10q-4 0-5 1q-14 4-13 19q24 223-59 315q-36 40-95 62t-150 29v-140q0-23-21-33q-8-3-14-3q-15 0-25 11l-286 286q-11 10-11 25t11 25l286 286q16 17 39 7q21-9 21-32v-147q230-15 335-123q94-97 94-284z" horiz-adv-x="1000" />
<glyph glyph-name="forward" unicode="&#xe86b;" d="m1000 493q0-15-11-25l-285-286q-11-11-25-11t-26 11t-10 25v143h-125q-55 0-98-3t-86-12t-74-24t-59-39t-45-56t-27-78t-10-101q0-30 3-68q0-3 2-13t1-15q0-8-5-14t-13-6q-9 0-15 10q-4 5-8 12t-7 17t-6 13q-71 159-71 252q0 111 30 186q90 225 488 225h125v143q0 14 10 25t26 10t25-10l285-286q11-11 11-25z" horiz-adv-x="1000" />
<glyph glyph-name="quote-left" unicode="&#xe86c;" d="m429 314v-214q0-45-32-76t-76-31h-214q-45 0-76 31t-31 76v393q0 58 23 111t61 91t91 61t111 23h35q15 0 26-11t10-25v-72q0-14-10-25t-26-10h-35q-59 0-101-42t-42-101v-18q0-22 15-38t38-16h125q45 0 76-31t32-76z m500 0v-214q0-45-32-76t-76-31h-214q-45 0-76 31t-31 76v393q0 58 23 111t61 91t91 61t111 23h35q15 0 25-11t11-25v-72q0-14-11-25t-25-10h-35q-59 0-101-42t-42-101v-18q0-22 15-38t38-16h125q45 0 76-31t32-76z" horiz-adv-x="928.6" />
<glyph glyph-name="quote-right" unicode="&#xe86d;" d="m429 671v-392q0-58-23-111t-61-91t-91-62t-111-22h-36q-14 0-25 10t-11 26v71q0 14 11 25t25 11h36q59 0 101 42t42 101v17q0 23-16 38t-38 16h-125q-45 0-76 31t-31 76v214q0 45 31 76t76 32h214q45 0 76-32t32-76z m500 0v-392q0-58-23-111t-61-91t-91-62t-111-22h-36q-14 0-25 10t-11 26v71q0 14 11 25t25 11h36q59 0 101 42t42 101v17q0 23-16 38t-38 16h-125q-45 0-76 31t-31 76v214q0 45 31 76t76 32h214q45 0 76-32t32-76z" horiz-adv-x="928.6" />
<glyph glyph-name="code" unicode="&#xe86e;" d="m344 69l-28-28q-5-5-12-5t-13 5l-260 260q-6 6-6 13t6 13l260 260q5 6 13 6t12-6l28-28q6-5 6-13t-6-12l-219-220l219-219q6-6 6-13t-6-13z m330 596l-208-721q-2-7-9-11t-13-1l-34 10q-8 2-11 8t-2 14l208 720q3 7 9 11t13 1l35-9q7-2 11-9t1-13z m367-364l-260-260q-6-5-13-5t-13 5l-28 28q-6 6-6 13t6 13l219 219l-219 220q-6 5-6 12t6 13l28 28q6 6 13 6t13-6l260-260q5-5 5-13t-5-13z" horiz-adv-x="1071.4" />
<glyph glyph-name="export" unicode="&#xe86f;" d="m786 298v-144q0-67-47-114t-114-47h-464q-67 0-114 47t-47 114v464q0 66 47 113t114 48h142q7 0 13-6t5-12q0-15-15-18q-43-15-74-34q-5-2-9-2h-62q-37 0-63-26t-27-63v-464q0-37 27-64t63-26h464q37 0 63 26t26 64v119q0 11 10 16q16 7 30 21q9 9 20 4q12-5 12-16z m132 277l-214-214q-10-11-25-11q-7 0-14 3q-22 9-22 33v107h-89q-181 0-245-73q-66-77-41-264q2-13-11-19q-5-1-7-1q-9 0-15 7q-5 8-11 17t-22 38t-28 56t-21 64t-10 68q0 27 2 50t8 51t15 49t26 45t39 42t52 34t70 27t89 17t110 6h89v107q0 24 22 33q7 3 14 3q14 0 25-11l214-214q11-11 11-25t-11-25z" horiz-adv-x="928.6" />
<glyph glyph-name="export-alt" unicode="&#xe870;" d="m561 236l196 196q11 11 11 25t-11 25l-196 197q-17 17-39 7q-22-9-22-32v-90q-66 0-121-11t-90-28t-64-44t-43-53t-24-61t-12-63t-3-61q0-101 93-226q6-6 14-6q4 0 7 1q13 5 11 19q-25 197 34 264q26 29 73 42t125 13v-89q0-24 22-33q7-3 14-3q14 0 25 11z m296 382v-536q0-66-47-113t-114-48h-535q-67 0-114 48t-47 113v536q0 66 47 113t114 48h535q67 0 114-48t47-113z" horiz-adv-x="857.1" />
<glyph glyph-name="pencil" unicode="&#xe871;" d="m203-7l50 51l-131 131l-51-51v-60h72v-71h60z m291 518q0 12-12 12q-5 0-9-4l-303-302q-4-4-4-10q0-12 13-12q5 0 9 4l302 302q4 4 4 10z m-30 107l232-232l-464-465h-232v233z m381-54q0-29-20-50l-93-93l-232 233l93 92q20 21 50 21q29 0 51-21l131-131q20-22 20-51z" horiz-adv-x="857.1" />
<glyph glyph-name="pencil-squared" unicode="&#xe872;" d="m225 232l85-85l-29-29h-31v53h-54v32z m231 217q8-7-1-16l-163-163q-9-9-16-2q-8 8 1 17l163 163q9 9 16 1z m-152-385l303 304l-161 161l-303-304v-161h161z m339 340l51 51q16 15 16 38t-16 38l-85 85q-15 15-38 15t-38-15l-51-52z m214 214v-536q0-66-47-113t-114-48h-535q-67 0-114 48t-47 113v536q0 66 47 113t114 48h535q67 0 114-48t47-113z" horiz-adv-x="857.1" />
<glyph glyph-name="edit" unicode="&#xe873;" d="m496 189l64 65l-85 85l-64-65v-31h53v-54h32z m245 402q-9 9-18-1l-196-195q-9-9 0-18t18 0l195 196q10 9 1 18z m45-331v-106q0-67-47-114t-114-47h-464q-67 0-114 47t-47 114v464q0 66 47 113t114 48h464q35 0 65-14q9-4 10-13q2-10-5-16l-27-28q-8-8-18-4q-13 3-25 3h-464q-37 0-63-26t-27-63v-464q0-37 27-64t63-26h464q37 0 63 26t26 64v70q0 7 5 12l36 36q8 8 20 4t11-16z m-54 411l161-160l-375-375h-161v160z m248-73l-51-52l-161 161l51 51q16 16 38 16t38-16l85-84q15-16 15-38t-15-38z" horiz-adv-x="1000" />
<glyph glyph-name="print" unicode="&#xe874;" d="m214-7h500v143h-500v-143z m0 357h500v214h-89q-22 0-38 16t-16 38v89h-357v-357z m643-36q0 15-11 25t-25 11t-25-11t-10-25t10-25t25-10t25 10t11 25z m72 0v-232q0-7-6-12t-12-6h-125v-89q0-22-16-38t-38-16h-536q-22 0-38 16t-15 38v89h-125q-7 0-13 6t-5 12v232q0 44 32 76t75 31h36v304q0 22 15 38t38 16h375q23 0 49-12t43-26l85-85q15-16 27-43t11-49v-143h35q44 0 76-31t32-76z" horiz-adv-x="928.6" />
<glyph glyph-name="retweet" unicode="&#xe875;" d="m714 11q0-8-5-13t-13-5h-535q-5 0-8 1t-5 4t-3 4t-2 7t0 6v335h-107q-15 0-25 11t-11 25q0 13 8 23l179 214q11 12 27 12t28-12l178-214q9-10 9-23q0-15-11-25t-25-11h-107v-214h321q9 0 14-6l89-108q4-6 4-11z m357 232q0-14-8-23l-179-214q-11-13-27-13t-27 13l-179 214q-8 9-8 23q0 14 10 25t26 11h107v214h-322q-9 0-14 7l-89 107q-4 5-4 11q0 7 5 12t13 6h536q4 0 7-1t5-4t3-5t2-6t1-7v-334h107q14 0 25-11t10-25z" horiz-adv-x="1071.4" />
<glyph glyph-name="keyboard" unicode="&#xe876;" d="m214 198v-53q0-9-9-9h-53q-9 0-9 9v53q0 9 9 9h53q9 0 9-9z m72 143v-54q0-8-9-8h-125q-9 0-9 8v54q0 9 9 9h125q9 0 9-9z m-72 143v-54q0-9-9-9h-53q-9 0-9 9v54q0 9 9 9h53q9 0 9-9z m572-286v-53q0-9-9-9h-482q-9 0-9 9v53q0 9 9 9h482q9 0 9-9z m-357 143v-54q0-8-9-8h-54q-9 0-9 8v54q0 9 9 9h54q9 0 9-9z m-72 143v-54q0-9-9-9h-53q-9 0-9 9v54q0 9 9 9h53q9 0 9-9z m214-143v-54q0-8-9-8h-53q-9 0-9 8v54q0 9 9 9h53q9 0 9-9z m-71 143v-54q0-9-9-9h-54q-8 0-8 9v54q0 9 8 9h54q9 0 9-9z m214-143v-54q0-8-9-8h-53q-9 0-9 8v54q0 9 9 9h53q9 0 9-9z m215-143v-53q0-9-9-9h-54q-9 0-9 9v53q0 9 9 9h54q9 0 9-9z m-286 286v-54q0-9-9-9h-54q-9 0-9 9v54q0 9 9 9h54q9 0 9-9z m143 0v-54q0-9-9-9h-54q-9 0-9 9v54q0 9 9 9h54q9 0 9-9z m143 0v-197q0-8-9-8h-125q-9 0-9 8v54q0 9 9 9h62v134q0 9 9 9h54q9 0 9-9z m71-420v500h-929v-500h929z m71 500v-500q0-29-21-50t-50-21h-929q-29 0-50 21t-21 50v500q0 30 21 51t50 21h929q30 0 50-21t21-51z" horiz-adv-x="1071.4" />
<glyph glyph-name="gamepad" unicode="&#xe877;" d="m464 243v71q0 8-5 13t-13 5h-107v107q0 8-5 13t-13 5h-71q-8 0-13-5t-5-13v-107h-107q-8 0-13-5t-5-13v-71q0-8 5-13t13-5h107v-107q0-8 5-13t13-5h71q8 0 13 5t5 13v107h107q8 0 13 5t5 13z m322-36q0 30-21 51t-51 21t-50-21t-21-51t21-50t50-21t51 21t21 50z m143 143q0 30-21 50t-51 21t-50-21t-21-50t21-51t50-20t51 20t21 51z m142-71q0-119-83-202t-202-84q-107 0-189 71h-123q-81-71-188-71q-119 0-202 84t-84 202t84 202t202 83h500q118 0 202-83t83-202z" horiz-adv-x="1071.4" />
<glyph glyph-name="comment" unicode="&#xe878;" d="m1000 350q0-97-67-179t-182-130t-251-48q-39 0-81 4q-110-97-257-135q-27-8-63-12q-10-1-17 5t-10 16v1q-2 2 0 6t1 6t2 5l4 5t4 5t4 5q4 5 17 19t20 22t17 22t18 28t15 33t15 42q-88 50-139 123t-50 157q0 73 40 139t106 114t160 76t194 28q136 0 251-48t182-130t67-179z" horiz-adv-x="1000" />
<glyph glyph-name="chat" unicode="&#xe879;" d="m786 421q0-77-53-143t-143-104t-197-38q-48 0-98 9q-70-49-155-72q-21-5-48-9h-2q-6 0-12 5t-6 11q-1 2-1 4t1 4t1 3l1 3t2 3t2 3t3 2t2 3q3 3 13 14t14 16t13 17t14 21t11 25q-69 40-108 98t-40 125q0 78 52 144t144 104t197 38t197-38t143-104t53-144z m214-142q0-67-40-126t-108-98q5-14 11-25t14-21t12-16t15-17t13-14q0 0 2-2t3-3t2-3t2-3l1-3t1-3t1-4t-1-3q-2-8-7-13t-13-4q-27 4-48 9q-85 23-155 72q-50-9-98-9q-151 0-263 74q32-3 49-3q90 0 172 25t148 72q69 52 107 119t37 141q0 43-13 85q72-39 114-99t42-128z" horiz-adv-x="1000" />
<glyph glyph-name="comment-empty" unicode="&#xe87a;" d="m500 636q-114 0-213-39t-157-105t-59-142q0-63 40-119t113-98l48-28l-15-54q-13-50-39-96q85 36 154 96l24 21l31-3q39-5 73-5q114 0 213 39t157 105t59 142t-59 142t-157 105t-213 39z m500-286q0-97-67-179t-182-130t-251-48q-39 0-81 4q-110-97-257-135q-27-8-63-12h-3q-8 0-15 6t-9 15v1q-2 2 0 6t1 6t2 5l4 5t4 5t4 5q4 5 17 19t20 22t17 22t18 28t15 33t15 42q-88 50-139 123t-50 157q0 97 67 179t182 130t251 48t251-48t182-130t67-179z" horiz-adv-x="1000" />
<glyph glyph-name="chat-empty" unicode="&#xe87b;" d="m393 636q-86 0-160-29t-118-79t-44-107q0-45 30-88t83-73l54-32l-19-47q19 12 34 22l25 18l29-6q44-8 86-8q85 0 159 29t118 79t44 106t-44 107t-118 79t-159 29z m0 71q106 0 197-38t143-104t53-144t-53-143t-143-104t-197-38q-48 0-98 9q-70-49-155-72q-21-5-48-9h-2q-6 0-12 5t-6 11q-1 2-1 4t1 4t1 3l1 3t2 3t2 3t3 2t2 3q3 3 13 14t14 16t13 17t14 21t11 25q-69 40-108 98t-40 125q0 78 52 144t144 104t197 38z m459-652q5-14 11-25t14-21t12-16t15-17t13-14q0 0 2-2t3-3t2-3t2-3l1-3t1-3t1-4t-1-3q-2-8-7-13t-13-4q-27 4-48 9q-85 23-155 72q-50-9-98-9q-151 0-263 74q32-3 49-3q90 0 172 25t148 72q69 52 107 119t37 141q0 43-13 85q72-39 114-99t42-128q0-67-40-126t-108-98z" horiz-adv-x="1000" />
<glyph glyph-name="bell" unicode="&#xe87c;" d="m473-96q0 8-9 8q-33 0-56 24t-24 57q0 9-9 9t-9-9q0-41 29-70t69-28q9 0 9 9z m-371 160h724q-91 101-137 230t-46 270q0 143-179 143t-178-143q0-141-46-270t-138-230z m827 0q0-29-22-50t-50-21h-250q0-59-42-101t-101-42t-101 42t-42 101h-250q-29 0-50 21t-21 50q106 90 160 222t54 278q0 92 54 146t147 66q-4 10-4 20q0 23 15 38t38 16t38-16t16-38q0-10-5-20q94-11 148-66t53-146q0-146 54-278t161-222z" horiz-adv-x="928.6" />
<glyph glyph-name="bell-alt" unicode="&#xe87d;" d="m473-96q0 8-9 8q-33 0-56 24t-24 57q0 9-9 9t-9-9q0-41 29-70t69-28q9 0 9 9z m456 160q0-29-22-50t-50-21h-250q0-59-42-101t-101-42t-101 42t-42 101h-250q-29 0-50 21t-21 50q106 90 160 222t54 278q0 92 54 146t147 66q-4 10-4 20q0 23 15 38t38 16t38-16t16-38q0-10-5-20q94-11 148-66t53-146q0-146 54-278t161-222z" horiz-adv-x="928.6" />
<glyph glyph-name="attention-alt" unicode="&#xe87e;" d="m286 154v-125q0-15-11-26t-25-10h-143q-14 0-25 10t-11 26v125q0 14 11 25t25 10h143q14 0 25-10t11-25z m16 589l-15-429q-1-14-12-25t-25-10h-143q-14 0-25 10t-12 25l-15 429q-1 14 9 25t25 11h179q14 0 25-11t9-25z" horiz-adv-x="357.1" />
<glyph glyph-name="attention" unicode="&#xe87f;" d="m571 83v106q0 8-5 13t-12 5h-108q-7 0-12-5t-5-13v-106q0-8 5-13t12-6h108q7 0 12 6t5 13z m-1 208l10 257q0 6-5 10q-8 6-14 6h-122q-7 0-14-6q-5-4-5-12l9-255q0-5 6-9t13-3h103q8 0 13 3t6 9z m-8 522l429-786q20-35-1-70q-10-17-26-26t-35-10h-858q-19 0-35 10t-26 26q-21 35-1 70l428 786q10 17 27 27t36 10t36-10t26-27z" horiz-adv-x="1000" />
<glyph glyph-name="attention-circled" unicode="&#xe880;" d="m429 779q116 0 215-58t156-156t57-215t-57-215t-156-156t-215-58t-216 58t-156 156t-57 215t57 215t156 156t216 58z m71-696v106q0 8-5 13t-12 5h-107q-8 0-13-5t-6-13v-106q0-8 6-13t13-6h107q7 0 12 6t5 13z m-1 192l10 346q0 7-6 10q-5 5-13 5h-123q-8 0-13-5q-6-3-6-10l10-346q0-6 5-10t14-4h103q8 0 13 4t6 10z" horiz-adv-x="857.1" />
<glyph glyph-name="location" unicode="&#xe881;" d="m429 493q0 59-42 101t-101 42t-101-42t-42-101t42-101t101-42t101 42t42 101z m142 0q0-61-18-100l-203-432q-9-18-27-29t-37-11t-38 11t-26 29l-204 432q-18 39-18 100q0 118 84 202t202 84t202-84t83-202z" horiz-adv-x="571.4" />
<glyph glyph-name="direction" unicode="&#xe882;" d="m782 655l-357-714q-10-20-32-20q-3 0-9 2q-12 2-19 12t-8 22v322h-321q-13 0-22 7t-13 20t2 23t17 17l714 357q7 4 16 4q15 0 25-11q8-7 10-19t-3-22z" horiz-adv-x="785.7" />
<glyph glyph-name="compass" unicode="&#xe883;" d="m357 243l143 71l-143 72v-143z m214 330v-303l-285-143v303z m161-223q0 83-41 152t-110 111t-152 41t-153-41t-110-111t-41-152t41-152t110-111t153-41t152 41t110 111t41 152z m125 0q0-117-57-215t-156-156t-215-58t-216 58t-156 156t-57 215t57 215t156 156t216 58t215-58t156-156t57-215z" horiz-adv-x="857.1" />
<glyph glyph-name="trash" unicode="&#xe884;" d="m286 439v-321q0-8-5-13t-13-5h-36q-8 0-13 5t-5 13v321q0 8 5 13t13 5h36q8 0 13-5t5-13z m143 0v-321q0-8-5-13t-13-5h-36q-8 0-13 5t-5 13v321q0 8 5 13t13 5h36q8 0 13-5t5-13z m142 0v-321q0-8-5-13t-12-5h-36q-8 0-13 5t-5 13v321q0 8 5 13t13 5h36q7 0 12-5t5-13z m72-404v529h-500v-529q0-12 4-22t8-15t6-5h464q2 0 6 5t8 15t4 22z m-375 601h250l-27 65q-4 5-9 6h-177q-6-1-10-6z m518-18v-36q0-8-5-13t-13-5h-54v-529q0-46-26-80t-63-34h-464q-37 0-63 33t-27 79v531h-53q-8 0-13 5t-5 13v36q0 8 5 13t13 5h172l39 93q9 20 30 35t45 15h178q22 0 44-15t30-35l39-93h173q8 0 13-5t5-13z" horiz-adv-x="785.7" />
<glyph glyph-name="doc" unicode="&#xe885;" d="m71-7h572v428h-232q-23 0-38 16t-16 38v232h-286v-714z m358 500h209q-5 16-12 23l-175 174q-6 7-22 13v-210z m285-18v-500q0-22-15-38t-38-16h-607q-23 0-38 16t-16 38v750q0 22 16 38t38 16h357q22 0 49-12t42-26l174-175q16-15 27-42t11-49z" horiz-adv-x="714.3" />
<glyph glyph-name="docs" unicode="&#xe886;" d="m946 636q23 0 38-16t16-38v-678q0-23-16-38t-38-16h-535q-23 0-38 16t-16 38v160h-303q-23 0-38 16t-16 38v375q0 22 11 49t27 42l228 228q15 16 42 27t49 11h232q23 0 38-16t16-38v-183q38 23 71 23h232z m-303-119l-167-167h167v167z m-357 214l-167-167h167v167z m109-361l176 176v233h-214v-233q0-22-16-38t-37-15h-233v-357h286v143q0 22 11 49t27 42z m534-449v643h-215v-232q0-22-15-38t-38-15h-232v-358h500z" horiz-adv-x="1000" />
<glyph glyph-name="doc-text" unicode="&#xe887;" d="m571 189v-35q0-8-5-13t-12-5h-393q-8 0-13 5t-5 13v35q0 8 5 13t13 5h393q7 0 12-5t5-13z m0 143v-36q0-7-5-12t-12-5h-393q-8 0-13 5t-5 12v36q0 8 5 13t13 5h393q7 0 12-5t5-13z m-500-339h572v428h-232q-23 0-38 16t-16 38v232h-286v-714z m358 500h209q-5 16-12 23l-175 174q-6 7-22 13v-210z m285-18v-500q0-22-15-38t-38-16h-607q-23 0-38 16t-16 38v750q0 22 16 38t38 16h357q22 0 49-12t42-26l174-175q16-15 27-42t11-49z" horiz-adv-x="714.3" />
<glyph glyph-name="doc-inv" unicode="&#xe888;" d="m714 421v-446q0-22-15-38t-38-16h-607q-23 0-38 16t-16 38v750q0 22 16 38t38 16h303v-304q0-22 16-38t38-16h303z m-1 72h-284v284q45-9 73-36l174-175q28-27 37-73z" horiz-adv-x="714.3" />
<glyph glyph-name="doc-text-inv" unicode="&#xe889;" d="m571 82v36q0 8-5 13t-12 5h-393q-8 0-13-5t-5-13v-36q0-8 5-13t13-5h393q7 0 12 5t5 13z m0 143v36q0 8-5 13t-12 5h-393q-8 0-13-5t-5-13v-36q0-8 5-13t13-5h393q7 0 12 5t5 13z m143 196v-446q0-22-15-38t-38-16h-607q-23 0-38 16t-16 38v750q0 22 16 38t38 16h303v-304q0-22 16-38t38-16h303z m-1 72h-284v284q45-9 73-36l174-175q28-27 37-73z" horiz-adv-x="714.3" />
<glyph glyph-name="folder" unicode="&#xe88a;" d="m929 511v-393q0-51-37-88t-88-37h-679q-51 0-88 37t-37 88v536q0 51 37 88t88 37h179q51 0 88-37t37-88v-18h375q51 0 88-37t37-88z" horiz-adv-x="928.6" />
<glyph glyph-name="folder-open" unicode="&#xe88b;" d="m1048 319q0-18-17-37l-187-221q-24-29-68-48t-80-20h-607q-19 0-33 7t-15 24q0 17 17 37l188 221q24 28 67 48t80 20h607q19 0 34-7t14-24z m-191 192v-90h-464q-53 0-110-26t-92-67l-188-221l-2-3q0 2-1 7t0 7v536q0 51 37 88t88 37h179q51 0 88-37t37-88v-18h303q51 0 88-37t37-88z" horiz-adv-x="1071.4" />
<glyph glyph-name="folder-empty" unicode="&#xe88c;" d="m857 118v393q0 22-16 38t-37 15h-393q-23 0-38 16t-16 38v36q0 22-16 37t-37 16h-179q-22 0-38-16t-16-37v-536q0-22 16-38t38-16h679q22 0 37 16t16 38z m72 393v-393q0-51-37-88t-88-37h-679q-51 0-88 37t-37 88v536q0 51 37 88t88 37h179q51 0 88-37t37-88v-18h375q51 0 88-37t37-88z" horiz-adv-x="928.6" />
<glyph glyph-name="folder-open-empty" unicode="&#xe88d;" d="m994 330q0 20-30 20h-607q-22 0-48-12t-39-29l-165-203q-10-13-10-22q0-20 30-20h607q22 0 48 13t40 29l164 203q10 12 10 21z m-637 91h429v90q0 22-16 38t-38 15h-321q-23 0-38 16t-16 38v36q0 22-16 37t-37 16h-179q-22 0-38-16t-16-37v-476l143 175q25 30 65 49t78 19z m708-91q0-34-25-67l-165-202q-24-30-65-49t-78-19h-607q-51 0-88 37t-37 88v536q0 51 37 88t88 37h179q51 0 88-37t37-88v-18h303q51 0 88-37t37-88v-90h107q30 0 55-13t38-40q8-17 8-38z" horiz-adv-x="1071.4" />
<glyph glyph-name="box" unicode="&#xe88e;" d="m607 386q0 14-10 25t-26 10h-142q-15 0-26-10t-10-25t10-25t26-11h142q15 0 26 11t10 25z m322 107v-536q0-14-11-25t-25-11h-786q-14 0-25 11t-11 25v536q0 14 11 25t25 11h786q14 0 25-11t11-25z m35 250v-143q0-15-10-25t-25-11h-858q-14 0-25 11t-10 25v143q0 14 10 25t25 11h858q14 0 25-11t10-25z" horiz-adv-x="1000" />
<glyph glyph-name="rss" unicode="&#xe88f;" d="m214 100q0-45-31-76t-76-31t-76 31t-31 76t31 76t76 31t76-31t31-76z m286-69q1-15-10-26q-10-12-26-12h-75q-14 0-24 9t-11 23q-13 128-103 219t-219 103q-14 1-23 11t-9 24v75q0 16 12 26q9 10 24 10h3q89-7 170-45t145-101q63-63 101-145t45-171z m286-1q1-15-10-26q-10-11-26-11h-80q-14 0-25 10t-11 23q-6 120-56 228t-129 188t-188 129t-228 57q-13 0-23 11t-10 24v80q0 15 11 25q10 11 25 11h1q147-8 280-67t238-165q104-103 164-237t67-280z" horiz-adv-x="785.7" />
<glyph glyph-name="rss-squared" unicode="&#xe890;" d="m286 136q0 29-21 50t-51 21t-50-21t-21-50t21-51t50-21t51 21t21 51z m196-53q-8 130-99 221t-221 99q-8 1-14-5t-5-13v-71q0-8 5-13t12-5q86-6 147-68t67-147q1-7 6-12t12-5h72q7 0 13 6t5 13z m214 0q-3 86-31 166t-78 145t-115 114t-145 78t-166 31q-8 1-13-5q-5-5-5-13v-71q0-7 5-12t12-6q114-4 211-62t155-156t63-210q0-8 5-13t13-5h71q7 0 13 6q6 5 5 13z m161 535v-536q0-66-47-113t-114-48h-535q-67 0-114 48t-47 113v536q0 66 47 113t114 48h535q67 0 114-48t47-113z" horiz-adv-x="857.1" />
<glyph glyph-name="phone" unicode="&#xe891;" d="m786 158q0-15-6-39t-12-39q-11-27-68-59q-52-28-103-28q-16 0-30 2t-32 7t-26 8t-31 11t-28 10q-54 20-97 47q-72 44-148 120t-120 148q-27 42-46 97q-2 5-11 27t-11 31t-8 27t-7 32t-2 29q0 52 28 104q32 56 60 68q14 6 38 12t39 6q8 0 12-2q10-4 29-43q7-10 17-30t20-35t17-30q2-2 10-14t12-20t4-16q0-11-16-28t-35-30t-34-30t-16-25q0-6 2-13t5-11t8-14t6-10q43-77 98-132t131-97q1 0 10-6t14-8t11-5t13-2q10 0 25 15t30 35t31 35t28 16q7 0 15-4t20-12t14-10q14-8 30-17t35-20t31-17q39-19 42-29q2-4 2-12z" horiz-adv-x="785.7" />
<glyph glyph-name="phone-squared" unicode="&#xe892;" d="m714 184q0 6-1 9q-2 5-21 17t-50 27l-29 16q-3 2-11 8t-14 8t-12 3q-10 0-26-18t-32-37t-24-18q-4 0-9 2t-9 3t-10 6t-7 4q-56 31-95 71t-71 95q-1 2-5 8t-5 9t-4 9t-2 9q0 8 12 19t25 21t25 22t11 21q0 5-2 12t-9 14t-7 10q-2 3-8 16t-14 25t-15 27t-14 23t-9 10t-9 1q-27 0-57-13q-25-11-44-52t-19-73q0-9 1-19t3-17t5-19t6-16t7-18t6-17q33-92 121-179t178-121q4-1 17-6t19-7t16-6t18-5t17-2t19-2q32 0 73 19t53 45q12 29 12 56z m143 434v-536q0-66-47-113t-114-48h-535q-67 0-114 48t-47 113v536q0 66 47 113t114 48h535q67 0 114-48t47-113z" horiz-adv-x="857.1" />
<glyph glyph-name="menu" unicode="&#xe893;" d="m857 100v-71q0-15-11-26t-25-10h-785q-15 0-25 10t-11 26v71q0 14 11 25t25 11h785q15 0 25-11t11-25z m0 286v-72q0-14-11-25t-25-10h-785q-15 0-25 10t-11 25v72q0 14 11 25t25 10h785q15 0 25-10t11-25z m0 285v-71q0-15-11-25t-25-11h-785q-15 0-25 11t-11 25v71q0 15 11 25t25 11h785q15 0 25-11t11-25z" horiz-adv-x="857.1" />
<glyph glyph-name="cog" unicode="&#xe894;" d="m571 350q0 59-41 101t-101 42t-101-42t-42-101t42-101t101-42t101 42t41 101z m286 61v-124q0-7-4-13t-12-7l-103-16q-10-30-22-51q20-27 60-77q6-6 6-14t-5-12q-15-21-56-61t-52-39q-7 0-14 5l-77 60q-25-13-51-21q-9-76-16-104q-4-16-21-16h-123q-8 0-14 5t-6 12l-16 103q-27 9-50 20l-79-59q-6-5-14-5q-8 0-14 6q-70 64-92 94q-4 5-4 12q0 7 5 13q8 12 28 37t30 40q-15 28-23 55l-102 15q-7 1-12 7t-4 13v124q0 7 4 13t11 7l104 16q8 25 22 51q-23 32-60 77q-6 7-6 13q0 6 5 13q15 20 55 60t53 40q7 0 15-5l77-60q24 13 50 21q9 76 17 104q3 16 20 16h123q8 0 14-5t7-12l15-103q28-9 50-21l80 60q5 5 13 5q7 0 14-5q72-67 92-95q4-5 4-13q0-6-4-12q-9-12-29-37t-30-40q14-28 23-54l102-16q7-1 12-7t4-13z" horiz-adv-x="857.1" />
<glyph glyph-name="cog-alt" unicode="&#xe895;" d="m500 350q0 59-42 101t-101 42t-101-42t-42-101t42-101t101-42t101 42t42 101z m429-286q0 29-22 50t-50 22t-50-22t-21-50q0-29 21-50t50-21t51 21t21 50z m0 572q0 29-22 50t-50 21t-50-21t-21-50q0-30 21-51t50-21t51 21t21 51z m-215-235v-103q0-6-4-11t-9-6l-86-14q-6-19-18-42q19-27 50-64q4-6 4-11q0-7-4-11q-13-17-46-50t-44-33q-6 0-11 4l-64 50q-21-11-43-17q-7-61-13-87q-4-13-17-13h-104q-6 0-11 4t-6 10l-12 85q-19 6-42 17l-66-49q-4-4-11-4q-6 0-12 4q-80 75-80 90q0 5 4 10q5 8 23 30t26 34q-13 24-20 46l-85 13q-5 1-9 5t-4 11v103q0 6 4 11t9 6l86 14q6 19 18 42q-19 27-50 64q-4 6-4 11q0 7 4 11q12 17 46 50t44 33q6 0 12-4l64-50q19 10 43 18q6 60 12 86q4 13 17 13h104q6 0 11-4t6-10l13-85q19-6 41-18l66 50q5 4 11 4q7 0 12-4q81-75 81-90q0-5-4-10q-7-9-24-30t-25-34q13-27 19-46l85-13q5-1 9-5t4-11z m357-298v-78q0-9-83-17q-6-15-17-29q29-63 29-77q0-2-2-4q-68-40-69-40q-5 0-26 27t-29 38q-11-2-17-2t-17 2q-7-12-29-38t-25-27q-1 0-70 40q-2 2-2 4q0 14 29 77q-10 14-17 29q-83 8-83 17v78q0 9 83 18q7 16 17 29q-29 63-29 77q0 2 2 4q3 1 20 11t33 19t17 9q4 0 25-26t29-38q12 1 17 1t17-1q28 40 51 62l4 2q2 0 69-39q2-2 2-4q0-14-29-77q10-13 17-29q83-9 83-18z m0 572v-78q0-9-83-18q-6-15-17-29q29-63 29-77q0-2-2-4q-68-39-69-39q-5 0-26 26t-29 38q-11-1-17-1t-17 1q-7-12-29-38t-25-26q-1 0-70 39q-2 2-2 4q0 14 29 77q-10 14-17 29q-83 9-83 18v78q0 9 83 17q7 16 17 29q-29 63-29 77q0 2 2 4q3 1 20 11t33 19t17 9q4 0 25-26t29-38q12 2 17 2t17-2q28 40 51 63l4 1q2 0 69-39q2-2 2-4q0-14-29-77q10-13 17-29q83-8 83-17z" horiz-adv-x="1071.4" />
<glyph glyph-name="wrench" unicode="&#xe896;" d="m214 29q0 14-10 25t-25 10t-26-10t-10-25t10-26t26-10t25 10t10 26z m360 234l-381-381q-21-20-50-20q-29 0-51 20l-59 61q-21 20-21 50q0 29 21 51l380 380q22-55 64-97t97-64z m353 243q0-22-12-59q-27-75-92-122t-144-46q-104 0-177 73t-73 177t73 176t177 74q32 0 67-10t60-26q9-6 9-15t-9-16l-163-94v-125l108-60q2 2 44 27t75 45t40 20q8 0 13-5t4-14z" horiz-adv-x="928.6" />
<glyph glyph-name="basket" unicode="&#xe897;" d="m357-7q0-30-21-51t-50-21t-51 21t-21 51t21 50t51 21t50-21t21-50z m500 0q0-30-21-51t-50-21t-51 21t-21 51t21 50t51 21t50-21t21-50z m72 607v-286q0-13-9-23t-23-12l-583-69q1-3 3-12t3-14t1-13q0-9-13-35h513q15 0 25-11t11-25t-11-25t-25-11h-571q-15 0-25 11t-11 25q0 8 6 22t17 33t11 21l-98 460h-114q-15 0-25 10t-11 25t11 25t25 11h143q8 0 15-4t12-8t7-14t4-15t3-16t3-14h670q14 0 25-11t11-25z" horiz-adv-x="928.6" />
<glyph glyph-name="calendar" unicode="&#xe898;" d="m71-79h161v161h-161v-161z m197 0h178v161h-178v-161z m-197 197h161v178h-161v-178z m197 0h178v178h-178v-178z m-197 214h161v161h-161v-161z m411-411h179v161h-179v-161z m-214 411h178v161h-178v-161z m428-411h161v161h-161v-161z m-214 197h179v178h-179v-178z m-196 482v161q0 7-6 12t-12 6h-36q-7 0-12-6t-6-12v-161q0-7 6-13t12-5h36q7 0 12 5t6 13z m410-482h161v178h-161v-178z m-214 214h179v161h-179v-161z m214 0h161v161h-161v-161z m18 268v161q0 7-5 12t-13 6h-35q-8 0-13-6t-5-12v-161q0-7 5-13t13-5h35q8 0 13 5t5 13z m215 36v-715q0-29-22-50t-50-21h-786q-29 0-50 21t-21 50v715q0 29 21 50t50 21h72v54q0 36 26 63t63 26h36q37 0 63-26t26-63v-54h214v54q0 36 27 63t63 26h35q37 0 63-26t27-63v-54h71q29 0 50-21t22-50z" horiz-adv-x="928.6" />
<glyph glyph-name="calendar-empty" unicode="&#xe899;" d="m71-79h786v572h-786v-572z m215 679v161q0 7-5 12t-13 6h-36q-8 0-13-6t-5-12v-161q0-8 5-13t13-5h36q8 0 13 5t5 13z m428 0v161q0 7-5 12t-13 6h-35q-8 0-13-6t-5-12v-161q0-8 5-13t13-5h35q8 0 13 5t5 13z m215 36v-715q0-29-22-50t-50-21h-786q-29 0-50 21t-21 50v715q0 29 21 50t50 21h72v54q0 36 26 63t63 26h36q37 0 63-26t26-63v-54h214v54q0 36 27 63t63 26h35q37 0 63-26t27-63v-54h71q29 0 50-21t22-50z" horiz-adv-x="928.6" />
<glyph glyph-name="login" unicode="&#xe89a;" d="m661 350q0-15-11-25l-303-304q-11-10-26-10t-25 10t-10 25v161h-250q-15 0-25 11t-11 25v214q0 15 11 25t25 11h250v161q0 14 10 25t25 10t26-10l303-304q11-11 11-25z m196 196v-392q0-67-47-114t-114-47h-178q-7 0-13 5t-5 13q0 2-1 11t0 15t2 13t5 11t12 3h178q37 0 63 26t27 64v392q0 37-27 63t-63 27h-174t-6 0t-7 2t-4 3t-4 5t-1 8q0 2-1 11t0 14t2 14t5 10t12 4h178q67 0 114-47t47-114z" horiz-adv-x="857.1" />
<glyph glyph-name="logout" unicode="&#xe89b;" d="m357 46q0-2 1-11t0-15t-2-13t-5-11t-12-3h-178q-67 0-114 47t-47 114v392q0 67 47 114t114 47h178q8 0 13-5t5-13q0-2 1-11t0-15t-2-13t-5-11t-12-3h-178q-37 0-63-27t-27-63v-392q0-37 27-64t63-26h174t6 0t7-2t4-3t4-5t1-8z m518 304q0-15-11-25l-303-304q-11-10-25-10t-25 10t-11 25v161h-250q-15 0-25 11t-11 25v214q0 15 11 25t25 11h250v161q0 14 11 25t25 10t25-10l303-304q11-11 11-25z" horiz-adv-x="928.6" />
<glyph glyph-name="mic" unicode="&#xe89c;" d="m643 457v-71q0-124-82-215t-204-104v-74h143q14 0 25-11t11-25t-11-25t-25-11h-357q-15 0-25 11t-11 25t11 25t25 11h143v74q-121 13-204 104t-82 215v71q0 15 11 25t25 11t25-11t10-25v-71q0-104 74-177t176-73t177 73t73 177v71q0 15 11 25t25 11t25-11t11-25z m-143 214v-285q0-74-52-126t-127-53t-126 53t-52 126v285q0 74 52 126t126 53t127-53t52-126z" horiz-adv-x="642.9" />
<glyph glyph-name="mute" unicode="&#xe89d;" d="m151 323l-56-57q-24 58-24 120v71q0 15 11 25t25 11t25-11t11-25v-71q0-30 8-63z m622 336l-202-202v-71q0-74-52-126t-126-53q-31 0-61 11l-54-54q55-28 115-28q103 0 176 73t74 177v71q0 15 10 25t26 11t25-11t10-25v-71q0-124-82-215t-203-104v-74h142q15 0 26-11t10-25t-10-25t-26-11h-357q-14 0-25 11t-10 25t10 25t25 11h143v74q-70 7-131 45l-142-142q-5-6-13-6t-12 6l-46 46q-6 5-6 13t6 12l688 689q6 6 13 6t13-6l46-46q5-5 5-13t-5-12z m-212 73l-347-346v285q0 74 53 126t126 53q57 0 103-33t65-85z" horiz-adv-x="785.7" />
<glyph glyph-name="volume-off" unicode="&#xe89e;" d="m429 654v-608q0-14-11-25t-25-10t-25 10l-186 186h-146q-15 0-25 11t-11 25v214q0 15 11 25t25 11h146l186 186q10 10 25 10t25-10t11-25z" horiz-adv-x="428.6" />
<glyph glyph-name="volume-down" unicode="&#xe89f;" d="m429 654v-608q0-14-11-25t-25-10t-25 10l-186 186h-146q-15 0-25 11t-11 25v214q0 15 11 25t25 11h146l186 186q10 10 25 10t25-10t11-25z m214-304q0-42-24-79t-63-52q-5-3-14-3q-14 0-25 10t-10 26q0 11 6 20t17 14t19 12t16 20t6 32t-6 32t-16 20t-19 12t-17 14t-6 20q0 15 10 26t25 10q9 0 14-3q39-15 63-52t24-79z" horiz-adv-x="642.9" />
<glyph glyph-name="volume-up" unicode="&#xe8a0;" d="m429 654v-608q0-14-11-25t-25-10t-25 10l-186 186h-146q-15 0-25 11t-11 25v214q0 15 11 25t25 11h146l186 186q10 10 25 10t25-10t11-25z m214-304q0-42-24-79t-63-52q-5-3-14-3q-14 0-25 10t-10 26q0 11 6 20t17 14t19 12t16 20t6 32t-6 32t-16 20t-19 12t-17 14t-6 20q0 15 10 26t25 10q9 0 14-3q39-15 63-52t24-79z m143 0q0-85-48-158t-125-105q-8-3-14-3q-15 0-26 11t-11 25q0 22 22 33q31 16 43 25q41 30 64 75t23 97t-23 97t-64 75q-12 9-43 25q-22 11-22 33q0 14 11 25t25 11q7 0 15-3q78-33 125-105t48-158z m143 0q0-128-71-236t-189-158q-7-3-14-3q-15 0-26 11t-10 25q0 20 22 33q3 2 12 6t13 6q25 14 45 28q69 51 108 127t38 161t-38 161t-108 127q-20 14-45 28q-4 3-13 6t-12 6q-22 13-22 33q0 15 10 25t26 11q7 0 14-3q118-51 189-158t71-236z" horiz-adv-x="928.6" />
<glyph glyph-name="headphones" unicode="&#xe8a1;" d="m929 356q0-93-34-176l-11-27l-103-18q-13-47-51-77t-87-29v-18q0-8-5-13t-13-5h-36q-8 0-13 5t-5 13v321q0 8 5 13t13 5h36q8 0 13-5t5-13v-18q39 0 72-20t52-53l38 7q16 53 16 108q0 82-49 155t-132 117t-176 43t-176-43t-132-117t-49-155q0-55 16-108l38-7q19 34 52 53t73 20v18q0 8 5 13t13 5h35q8 0 13-5t5-13v-321q0-8-5-13t-13-5h-35q-8 0-13 5t-5 13v18q-49 0-88 29t-50 77l-103 18l-12 27q-33 83-33 176q0 84 37 162t100 135t149 91t178 35t179-35t148-91t100-135t38-162z" horiz-adv-x="928.6" />
<glyph glyph-name="clock" unicode="&#xe8a2;" d="m500 546v-250q0-7-5-12t-13-5h-178q-8 0-13 5t-5 12v36q0 8 5 13t13 5h125v196q0 8 5 13t12 5h36q8 0 13-5t5-13z m232-196q0 83-41 152t-110 111t-152 41t-153-41t-110-111t-41-152t41-152t110-111t153-41t152 41t110 111t41 152z m125 0q0-117-57-215t-156-156t-215-58t-216 58t-156 156t-57 215t57 215t156 156t216 58t215-58t156-156t57-215z" horiz-adv-x="857.1" />
<glyph glyph-name="lightbulb" unicode="&#xe8a3;" d="m411 529q0-8-6-13t-12-5t-13 5t-5 13q0 25-30 39t-59 14q-8 0-13 5t-5 13t5 13t13 5q28 0 55-9t49-30t21-50z m89 0q0 40-19 74t-51 57t-68 35t-76 12t-76-12t-69-35t-50-57t-20-74q0-57 38-101q6-6 17-18t17-19q72-85 79-166h127q8 81 79 166q6 6 17 19t17 18q38 44 38 101z m71 0q0-87-57-150q-25-27-42-49t-33-53t-19-60q26-15 26-46q0-20-14-35q14-15 14-36q0-29-25-45q8-13 8-26q0-26-18-40t-43-14q-11-25-34-39t-48-15t-49 15t-33 39q-26 0-44 14t-17 40q0 13 7 26q-25 16-25 45q0 21 14 36q-14 15-14 35q0 31 26 46q-2 28-19 60t-33 53t-42 49q-57 63-57 150q0 55 25 102t65 80t92 49t104 19t104-19t91-49t66-80t24-102z" horiz-adv-x="571.4" />
<glyph glyph-name="block" unicode="&#xe8a4;" d="m732 352q0 89-48 164l-421-420q76-50 166-50q61 0 118 25t96 65t65 97t24 119z m-557-167l421 421q-75 50-167 50q-83 0-153-40t-110-111t-41-153q0-91 50-167z m682 167q0-88-34-168t-91-137t-137-92t-166-34t-167 34t-137 92t-91 137t-34 168t34 167t91 137t137 91t167 34t166-34t137-91t91-137t34-167z" horiz-adv-x="857.1" />
<glyph glyph-name="resize-full" unicode="&#xe8a5;" d="m421 261q0-8-5-13l-186-185l81-81q10-10 10-25t-10-25t-25-11h-250q-15 0-25 11t-11 25v250q0 15 11 25t25 11t25-11l80-80l185 185q6 6 13 6t13-6l64-63q5-6 5-13z m436 482v-250q0-15-11-25t-25-11t-25 11l-80 80l-185-185q-6-6-13-6t-13 6l-64 63q-5 6-5 13t5 13l186 185l-81 81q-10 10-10 25t10 25t25 11h250q15 0 25-11t11-25z" horiz-adv-x="857.1" />
<glyph glyph-name="resize-full-alt" unicode="&#xe8a6;" d="m716 548l-198-198l198-198l80 80q16 18 39 8q22-9 22-33v-250q0-14-11-25t-25-11h-250q-23 0-33 23q-9 22 8 38l81 81l-198 198l-199-198l81-81q17-16 8-38q-10-23-33-23h-250q-15 0-25 11t-11 25v250q0 24 22 33q22 10 39-8l80-80l198 198l-198 198l-80-80q-11-11-25-11q-7 0-14 3q-22 9-22 33v250q0 14 11 25t25 11h250q23 0 33-23q9-22-8-38l-81-81l199-198l198 198l-81 81q-17 16-8 38q10 23 33 23h250q15 0 25-11t11-25v-250q0-24-22-33q-7-3-14-3q-14 0-25 11z" horiz-adv-x="857.1" />
<glyph glyph-name="resize-small" unicode="&#xe8a7;" d="m429 314v-250q0-14-11-25t-25-10t-25 10l-81 81l-185-186q-5-5-13-5t-13 5l-63 64q-6 5-6 13t6 13l185 185l-80 80q-11 11-11 25t11 25t25 11h250q14 0 25-11t11-25z m421 375q0-7-6-13l-185-185l80-80q11-11 11-25t-11-25t-25-11h-250q-14 0-25 11t-10 25v250q0 14 10 25t25 10t25-10l81-81l185 186q6 5 13 5t13-5l63-64q6-6 6-13z" horiz-adv-x="857.1" />
<glyph glyph-name="resize-vertical" unicode="&#xe8a8;" d="m393 671q0-14-11-25t-25-10h-71v-572h71q15 0 25-10t11-25t-11-26l-143-142q-10-11-25-11t-25 11l-143 142q-10 11-10 26t10 25t25 10h72v572h-72q-14 0-25 10t-10 25t10 25l143 143q11 11 25 11t25-11l143-143q11-10 11-25z" horiz-adv-x="428.6" />
<glyph glyph-name="resize-horizontal" unicode="&#xe8a9;" d="m1000 350q0-15-11-25l-143-143q-10-11-25-11t-25 11t-10 25v72h-572v-72q0-14-10-25t-25-11t-26 11l-142 143q-11 10-11 25t11 25l142 143q11 11 26 11t25-11t10-25v-72h572v72q0 14 10 25t25 11t25-11l143-143q11-11 11-25z" horiz-adv-x="1000" />
<glyph glyph-name="move" unicode="&#xe8aa;" d="m1000 350q0-15-11-25l-143-143q-10-11-25-11t-25 11t-10 25v72h-215v-215h72q14 0 25-10t11-25t-11-26l-143-142q-11-11-25-11t-25 11l-143 142q-11 11-11 26t11 25t25 10h72v215h-215v-72q0-14-10-25t-25-11t-26 11l-142 143q-11 10-11 25t11 25l142 143q11 11 26 11t25-11t10-25v-72h215v215h-72q-14 0-25 10t-11 25t11 25l143 143q10 11 25 11t25-11l143-143q11-10 11-25t-11-25t-25-10h-72v-215h215v72q0 14 10 25t25 11t25-11l143-143q11-11 11-25z" horiz-adv-x="1000" />
<glyph glyph-name="zoom-in" unicode="&#xe8ab;" d="m571 404v-36q0-7-5-13t-12-5h-125v-125q0-7-6-13t-12-5h-36q-7 0-13 5t-5 13v125h-125q-7 0-12 5t-6 13v36q0 7 6 12t12 5h125v125q0 8 5 13t13 5h36q7 0 12-5t6-13v-125h125q7 0 12-5t5-12z m72-18q0 103-74 176t-176 74t-177-74t-73-176t73-177t177-73t176 73t74 177z m286-465q0-29-21-50t-51-21q-30 0-50 21l-192 191q-99-69-222-69q-80 0-153 31t-125 84t-84 125t-31 153t31 152t84 126t125 84t153 31t152-31t126-84t84-126t31-152q0-123-70-223l192-191q21-21 21-51z" horiz-adv-x="928.6" />
<glyph glyph-name="zoom-out" unicode="&#xe8ac;" d="m571 404v-36q0-7-5-13t-12-5h-322q-7 0-12 5t-6 13v36q0 7 6 12t12 5h322q7 0 12-5t5-12z m72-18q0 103-74 176t-176 74t-177-74t-73-176t73-177t177-73t176 73t74 177z m286-465q0-29-21-50t-51-21q-30 0-50 21l-192 191q-99-69-222-69q-80 0-153 31t-125 84t-84 125t-31 153t31 152t84 126t125 84t153 31t152-31t126-84t84-126t31-152q0-123-70-223l192-191q21-21 21-51z" horiz-adv-x="928.6" />
<glyph glyph-name="down-circled2" unicode="&#xe8ad;" d="m625 332q0-7-6-13l-178-178q-6-5-12-5t-13 5l-179 178q-8 9-4 20q5 11 17 11h107v196q0 8 5 13t13 5h107q8 0 13-5t5-13v-196h107q8 0 13-5t5-13z m-196 322q-83 0-153-41t-110-111t-41-152t41-152t110-111t153-41t152 41t110 111t41 152t-41 152t-110 111t-152 41z m428-304q0-117-57-215t-156-156t-215-58t-216 58t-156 156t-57 215t57 215t156 156t216 58t215-58t156-156t57-215z" horiz-adv-x="857.1" />
<glyph glyph-name="up-circled2" unicode="&#xe8ae;" d="m624 361q-5-11-17-11h-107v-196q0-8-5-13t-13-5h-107q-8 0-13 5t-5 13v196h-107q-8 0-13 5t-5 13q0 7 6 13l178 178q6 5 13 5t12-5l179-178q8-9 4-20z m-195 293q-83 0-153-41t-110-111t-41-152t41-152t110-111t153-41t152 41t110 111t41 152t-41 152t-110 111t-152 41z m428-304q0-117-57-215t-156-156t-215-58t-216 58t-156 156t-57 215t57 215t156 156t216 58t215-58t156-156t57-215z" horiz-adv-x="857.1" />
<glyph glyph-name="down-dir" unicode="&#xe8af;" d="m571 457q0-14-10-25l-250-250q-11-11-25-11t-25 11l-250 250q-11 11-11 25t11 25t25 11h500q14 0 25-11t10-25z" horiz-adv-x="571.4" />
<glyph glyph-name="up-dir" unicode="&#xe8b0;" d="m571 171q0-14-10-25t-25-10h-500q-15 0-25 10t-11 25t11 26l250 250q10 10 25 10t25-10l250-250q10-11 10-26z" horiz-adv-x="571.4" />
<glyph glyph-name="left-dir" unicode="&#xe8b1;" d="m357 600v-500q0-15-10-25t-26-11t-25 11l-250 250q-10 10-10 25t10 25l250 250q11 11 25 11t26-11t10-25z" horiz-adv-x="357.1" />
<glyph glyph-name="right-dir" unicode="&#xe8b2;" d="m321 350q0-15-10-25l-250-250q-11-11-25-11t-25 11t-11 25v500q0 14 11 25t25 11t25-11l250-250q10-11 10-25z" horiz-adv-x="357.1" />
<glyph glyph-name="down-open" unicode="&#xe8b3;" d="m899 457q0-29-21-50l-363-363q-21-22-51-22q-30 0-50 22l-363 363q-21 20-21 50q0 30 21 51l41 42q22 20 51 20q29 0 50-20l271-271l271 271q21 20 51 20q29 0 50-20l42-42q21-22 21-51z" horiz-adv-x="928.6" />
<glyph glyph-name="left-open" unicode="&#xe8b4;" d="m414-28l-364 363q-20 21-20 51t20 50l364 364q21 20 51 20t50-20l42-42q21-21 21-51t-21-50l-271-271l271-271q21-21 21-51t-21-50l-42-42q-21-20-50-20t-51 20z" horiz-adv-x="642.9" />
<glyph glyph-name="right-open" unicode="&#xe8b5;" d="m613 386q0-29-20-51l-364-363q-21-21-50-21t-51 21l-42 41q-21 22-21 51q0 30 21 50l271 272l-271 270q-21 22-21 51q0 30 21 50l42 42q20 21 51 21t50-21l364-363q20-21 20-50z" horiz-adv-x="642.9" />
<glyph glyph-name="up-open" unicode="&#xe8b6;" d="m899 171q0-29-21-50l-42-42q-21-21-50-21q-30 0-51 21l-271 271l-271-271q-20-21-50-21t-50 21l-42 42q-21 20-21 50q0 30 21 51l363 363q21 21 50 21q29 0 51-21l363-363q21-21 21-51z" horiz-adv-x="928.6" />
<glyph glyph-name="angle-left" unicode="&#xe8b7;" d="m350 546q0-7-6-12l-219-220l219-219q6-6 6-13t-6-13l-28-28q-5-5-12-5t-13 5l-260 260q-6 6-6 13t6 13l260 260q5 6 13 6t12-6l28-28q6-5 6-13z" horiz-adv-x="357.1" />
<glyph glyph-name="angle-right" unicode="&#xe8b8;" d="m332 314q0-7-6-13l-260-260q-5-5-12-5t-13 5l-28 28q-6 6-6 13t6 13l219 219l-219 220q-6 5-6 12t6 13l28 28q5 6 13 6t12-6l260-260q6-5 6-13z" horiz-adv-x="357.1" />
<glyph glyph-name="angle-up" unicode="&#xe8b9;" d="m600 189q0-7-6-13l-28-27q-5-6-12-6t-13 6l-220 219l-219-219q-5-6-13-6t-13 6l-27 27q-6 6-6 13t6 13l260 260q5 6 12 6t13-6l260-260q6-5 6-13z" horiz-adv-x="642.9" />
<glyph glyph-name="angle-down" unicode="&#xe8ba;" d="m600 439q0-7-6-13l-260-260q-5-5-13-5t-12 5l-260 260q-6 6-6 13t6 13l27 28q6 6 13 6t13-6l219-219l220 219q5 6 13 6t12-6l28-28q6-5 6-13z" horiz-adv-x="642.9" />
<glyph glyph-name="angle-circled-left" unicode="&#xe8bb;" d="m507 72l57 56q11 11 11 26t-11 25l-171 171l171 171q11 11 11 25t-11 25l-57 57q-10 11-25 11t-25-11l-253-253q-11-11-11-25t11-25l253-253q11-11 25-11t25 11z m350 278q0-117-57-215t-156-156t-215-58t-216 58t-156 156t-57 215t57 215t156 156t216 58t215-58t156-156t57-215z" horiz-adv-x="857.1" />
<glyph glyph-name="angle-circled-right" unicode="&#xe8bc;" d="m400 72l253 253q11 10 11 25t-11 25l-253 253q-11 11-25 11t-25-11l-57-57q-11-10-11-25t11-25l171-171l-171-171q-11-11-11-25t11-26l57-56q10-11 25-11t25 11z m457 278q0-117-57-215t-156-156t-215-58t-216 58t-156 156t-57 215t57 215t156 156t216 58t215-58t156-156t57-215z" horiz-adv-x="857.1" />
<glyph glyph-name="angle-circled-up" unicode="&#xe8bd;" d="m650 214l57 57q11 11 11 25t-11 26l-253 253q-11 10-25 10t-26-10l-253-253q-10-11-10-26t10-25l57-57q11-10 25-10t25 10l172 172l171-172q10-10 25-10t25 10z m207 136q0-117-57-215t-156-156t-215-58t-216 58t-156 156t-57 215t57 215t156 156t216 58t215-58t156-156t57-215z" horiz-adv-x="857.1" />
<glyph glyph-name="angle-circled-down" unicode="&#xe8be;" d="m454 125l253 253q11 11 11 26t-11 25l-57 57q-11 10-25 10t-25-10l-171-172l-172 172q-10 10-25 10t-25-10l-57-57q-11-11-11-25t11-26l253-253q11-11 26-11t25 11z m403 225q0-117-57-215t-156-156t-215-58t-216 58t-156 156t-57 215t57 215t156 156t216 58t215-58t156-156t57-215z" horiz-adv-x="857.1" />
<glyph glyph-name="angle-double-left" unicode="&#xe8bf;" d="m350 82q0-7-6-13l-28-28q-5-5-12-5t-13 5l-260 260q-6 6-6 13t6 13l260 260q5 6 13 6t12-6l28-28q6-5 6-13t-6-12l-219-220l219-219q6-6 6-13z m214 0q0-7-5-13l-28-28q-6-5-13-5t-13 5l-260 260q-6 6-6 13t6 13l260 260q6 6 13 6t13-6l28-28q5-5 5-13t-5-12l-220-220l220-219q5-6 5-13z" horiz-adv-x="571.4" />
<glyph glyph-name="angle-double-right" unicode="&#xe8c0;" d="m332 314q0-7-6-13l-260-260q-5-5-12-5t-13 5l-28 28q-6 6-6 13t6 13l219 219l-219 220q-6 5-6 12t6 13l28 28q5 6 13 6t12-6l260-260q6-5 6-13z m214 0q0-7-5-13l-260-260q-6-5-13-5t-13 5l-28 28q-5 6-5 13t5 13l219 219l-219 220q-5 5-5 12t5 13l28 28q6 6 13 6t13-6l260-260q5-5 5-13z" horiz-adv-x="571.4" />
<glyph glyph-name="angle-double-up" unicode="&#xe8c1;" d="m600 118q0-7-6-13l-28-28q-5-5-12-5t-13 5l-220 219l-219-219q-5-5-13-5t-13 5l-27 28q-6 6-6 13t6 13l260 260q5 5 12 5t13-5l260-260q6-6 6-13z m0 214q0-7-6-13l-28-28q-5-5-12-5t-13 5l-220 220l-219-220q-5-5-13-5t-13 5l-27 28q-6 6-6 13t6 13l260 260q5 6 12 6t13-6l260-260q6-6 6-13z" horiz-adv-x="642.9" />
<glyph glyph-name="angle-double-down" unicode="&#xe8c2;" d="m600 368q0-7-6-13l-260-260q-5-6-13-6t-12 6l-260 260q-6 6-6 13t6 13l27 28q6 5 13 5t13-5l219-220l220 220q5 5 13 5t12-5l28-28q6-6 6-13z m0 214q0-7-6-13l-260-260q-5-5-13-5t-12 5l-260 260q-6 6-6 13t6 13l27 28q6 5 13 5t13-5l219-219l220 219q5 5 13 5t12-5l28-28q6-6 6-13z" horiz-adv-x="642.9" />
<glyph glyph-name="down" unicode="&#xe8c3;" d="m427 125q4-11-3-19l-195-215q-6-5-13-5q-8 0-13 5l-199 215q-7 8-2 19q5 11 16 11h125v696q0 8 5 13t13 5h107q8 0 13-5t5-13v-696h125q11 0 16-11z" horiz-adv-x="428.6" />
<glyph glyph-name="left" unicode="&#xe8c4;" d="m964 352q0-8-5-14l-215-197q-9-8-19-4q-11 5-11 17v125h-696q-8 0-13 5t-5 12v108q0 7 5 12t13 5h696v125q0 12 11 17t19-3l215-196q5-5 5-12z" horiz-adv-x="1000" />
<glyph glyph-name="right" unicode="&#xe8c5;" d="m1000 404v-108q0-7-5-12t-13-5h-696v-125q0-12-11-17t-19 3l-215 195q-5 6-5 13q0 8 5 14l215 197q8 8 19 4q11-5 11-17v-125h696q8 0 13-5t5-12z" horiz-adv-x="1000" />
<glyph glyph-name="up" unicode="&#xe8c6;" d="m427 575q-5-11-16-11h-125v-696q0-8-5-13t-13-5h-107q-8 0-13 5t-5 13v696h-125q-12 0-16 11t2 19l196 215q5 5 13 5q7 0 13-5l198-215q7-9 3-19z" horiz-adv-x="428.6" />
<glyph glyph-name="down-big" unicode="&#xe8c7;" d="m899 386q0-30-21-51l-363-363q-22-21-51-21q-29 0-50 21l-363 363q-21 21-21 51q0 29 21 50l41 42q22 21 51 21q29 0 50-21l164-164v393q0 29 21 50t51 22h71q29 0 50-22t21-50v-393l164 164q21 21 51 21q29 0 50-21l42-42q21-21 21-50z" horiz-adv-x="928.6" />
<glyph glyph-name="left-big" unicode="&#xe8c8;" d="m857 350v-71q0-30-18-51t-47-21h-393l163-164q22-20 22-50t-22-50l-41-43q-21-20-51-20q-29 0-50 20l-364 364q-20 21-20 50q0 29 20 51l364 363q21 21 50 21q29 0 51-21l41-42q22-21 22-50t-22-51l-163-164h393q29 0 47-21t18-50z" horiz-adv-x="857.1" />
<glyph glyph-name="right-big" unicode="&#xe8c9;" d="m821 314q0-30-20-51l-364-363q-21-20-50-20q-29 0-51 20l-41 42q-22 21-22 51t22 51l163 163h-393q-29 0-47 21t-18 51v71q0 30 18 50t47 21h393l-163 164q-22 21-22 51t22 50l41 42q22 21 51 21q29 0 50-21l364-364q20-19 20-50z" horiz-adv-x="857.1" />
<glyph glyph-name="up-big" unicode="&#xe8ca;" d="m899 308q0-28-21-50l-42-42q-21-21-50-21q-30 0-51 21l-164 164v-393q0-29-21-47t-50-19h-71q-30 0-51 19t-21 47v393l-164-164q-20-21-50-21t-50 21l-42 42q-21 21-21 50q0 30 21 51l363 363q20 21 50 21q30 0 51-21l363-363q21-22 21-51z" horiz-adv-x="928.6" />
<glyph glyph-name="right-hand" unicode="&#xe8cb;" d="m143 100q0 14-11 25t-25 11t-25-11t-11-25t11-25t25-11t25 11t11 25z m786 321q0 29-22 50t-50 22h-321q0 11 8 27t18 31t19 38t8 47q0 37-25 54t-64 17q-13 0-50-77q-14-25-21-37q-22-35-62-81q-40-45-57-59q-38-32-78-32h-18v-357h18q40 0 93-18t108-35t100-18q106 0 106 93q0 15-3 31q17 9 27 30t9 41t-10 38q30 28 30 66q0 14-6 31t-14 27h185q29 0 50 21t22 50z m71 1q0-59-42-101t-101-42h-94q-2-35-21-67q2-12 2-24q0-56-34-99q1-78-47-123t-127-45q-74 0-179 39q-92 33-125 33h-161q-29 0-50 21t-21 50v357q0 30 21 51t50 21h161q6 0 12 2t13 8t13 10t13 13t12 12t10 12t8 9q36 42 56 72q7 12 18 35t21 40t22 35t31 28t39 10q70 0 115-38t46-105q0-38-13-72h209q58 0 101-42t42-100z" horiz-adv-x="1000" />
<glyph glyph-name="left-hand" unicode="&#xe8cc;" d="m768 64h18v357h-18q-20 0-38 7t-35 21t-28 25t-27 31q-1 1-2 2t-2 3t-3 2q-40 46-62 81q-8 13-21 38q-1 2-6 13t-11 20t-11 20t-12 17t-10 6q-40 0-64-17t-25-54q0-24 8-47t18-38t19-31t8-27h-321q-28 0-50-22t-22-50q0-29 22-50t50-21h185q-9-10-14-27t-6-31q0-38 30-66q-10-18-10-38t9-41t27-30q-2-13-2-31q0-47 27-70t75-23q47 0 102 18t109 35t93 18z m161 36q0 14-11 25t-25 11t-25-11t-11-25t11-25t25-11t25 11t11 25z m71 321v-357q0-29-21-50t-50-21h-161q-33 0-125-33q-106-39-177-39q-79 0-128 44t-48 121l0 3q-34 42-34 99q0 12 2 24q-19 32-21 67h-94q-59 0-101 42t-42 101q0 57 42 100t101 42h209q-13 34-13 72q0 68 46 105t115 38q21 0 39-10t30-28t23-35t21-40t18-35q20-30 56-72q1-1 8-9t10-12t12-12t13-13t13-10t13-8t12-2h161q29 0 50-21t21-51z" horiz-adv-x="1000" />
</font>
</defs>
</svg>
