<?xml version="1.0" standalone="no"?>
<!DOCTYPE svg PUBLIC "-//W3C//DTD SVG 1.1//EN" "http://www.w3.org/Graphics/SVG/1.1/DTD/svg11.dtd" >
<svg xmlns="http://www.w3.org/2000/svg">
<metadata>Generated by IcoMoon</metadata>
<defs>
<font id="icomoon" horiz-adv-x="1024">
<font-face units-per-em="1024" ascent="960" descent="-64" />
<missing-glyph horiz-adv-x="1024" />
<glyph unicode="&#x20;" horiz-adv-x="512" d="" />
<glyph unicode="&#xe600;" glyph-name="location-icon" d="M517.973 952.067c-189.853 0-344.303-150.258-344.303-334.967 0-74.366 48.835-195.649 149.268-370.767 71.045-123.853 140.923-227.096 143.848-231.448l51.186-75.472 51.186 75.476c2.925 4.349 72.783 107.592 143.831 231.448 100.471 175.118 149.286 296.397 149.286 370.767 0 184.709-154.47 334.964-344.303 334.964zM517.973 445.74c-98.574 0-178.48 77.732-178.48 173.636 0 95.884 79.906 173.636 178.48 173.636s178.483-77.749 178.483-173.636c0-95.904-79.91-173.636-178.483-173.636z" />
<glyph unicode="&#xe601;" glyph-name="mail-icon" d="M1020.157 201.714c0-21.101-6.263-40.745-16.295-57.982l-319.785 340.791 316.344 263.588c12.295-18.606 19.736-40.438 19.736-64.061v-482.335zM513.707 422.625l440.177 366.838c-18.039 9.397-38.39 15.165-60.341 15.165h-759.671c-21.975 0-42.322-5.769-60.317-15.165l440.153-366.838zM636.409 444.86l-101.881-84.972c-5.96-4.946-13.377-7.444-20.821-7.444-7.468 0-14.882 2.495-20.842 7.444l-101.905 84.972-323.857-345.173c19.408-11.588 42.158-18.558 66.772-18.558h759.668c24.59 0 47.34 6.97 66.792 18.558l-323.925 345.173zM26.969 748.107c-12.295-18.606-19.712-40.438-19.712-64.061v-482.335c0-21.101 6.216-40.745 16.251-57.982l319.782 340.835-316.32 263.543z" />
<glyph unicode="&#xe602;" glyph-name="phone-icon" d="M1014.989 158.799c2.116-16.282-2.819-30.385-14.81-42.435l-140.861-139.769c-6.294-7.055-14.65-13.131-24.849-18.016-10.254-4.99-20.292-8.137-30.167-9.547-0.707 0-2.823-0.218-6.349-0.543-3.526-0.328-8.141-0.543-13.78-0.543-13.404 0-35.106 2.28-65.113 6.892-30.003 4.615-66.683 15.899-110.090 33.915-43.411 18.012-92.652 45.036-147.695 81.063-55.071 36.028-113.644 85.405-175.773 148.289-49.405 48.78-90.344 95.334-122.815 139.827-32.447 44.493-58.573 85.62-78.35 123.44-19.75 37.789-34.563 72.055-44.442 102.765-9.875 30.737-16.602 57.218-20.128 79.462s-4.936 39.745-4.233 52.439c0.707 12.725 1.058 19.777 1.058 21.19 1.41 9.902 4.584 19.941 9.523 30.194 4.936 10.23 10.96 18.531 18.012 24.907l140.807 140.909c9.875 9.878 21.159 14.814 33.857 14.814 9.196 0 17.309-2.659 24.364-7.922 7.052-5.318 13.076-11.855 18.012-19.616l113.268-215.057c6.376-11.312 8.141-23.682 5.291-37.086-2.819-13.428-8.817-24.713-17.988-33.911l-51.872-51.9c-1.413-1.41-2.659-3.717-3.717-6.892s-1.574-5.833-1.574-7.95c2.823-14.841 9.172-31.795 19.046-50.842 8.462-16.957 21.542-37.629 39.175-61.993s42.701-52.466 75.175-84.21c31.771-32.498 59.983-57.73 84.698-75.8 24.716-17.961 45.332-31.201 61.938-39.718 16.551-8.462 29.3-13.565 38.144-15.302l13.186-2.714c1.41 0 3.744 0.546 6.892 1.632s5.478 2.277 6.892 3.69l60.337 61.474c12.752 11.288 27.511 16.93 44.442 16.93 12.042 0 21.593-2.116 28.648-6.345h1.034l204.339-120.784c14.804-9.165 23.648-20.832 26.467-34.939z" />
<glyph unicode="&#xe603;" glyph-name="testimonial-icon" d="M70.253 747.223h662.798v-59.191h-662.798v59.191zM132.055 662.965h529.394v-52.524h-529.394v52.524zM509.324 483.41h-377.269v-52.531h322.748l54.521 52.531zM387.458 251.191l11.38 52.61h-266.783v-52.61h255.403zM804.349 712.629l-6.113-7.021v45.647c-0.055 46.944-38.769 85.333-86.016 85.333h-621.046c-47.302 0-86.019-38.39-86.019-85.333v-616.718c0-46.944 38.717-85.364 86.019-85.364h621.087c47.264 0 85.975 38.42 85.975 85.364v292.048l145.152 166.339-139.039 119.706zM733.051 747.223v-116.289l-232.165-266.107 138.947-119.788 93.273 106.923v-229.574h-662.852v624.835h662.798zM1010.36 716.278l-92.655 79.65c-12.677 11.005-30.788 11.288-39.994 0.693l-58.047-66.529 139.138-119.654 57.952 66.519c9.393 10.534 6.434 28.436-6.393 39.322zM441.969 169.711l7.124-6.093 175.104 63.314-139.049 119.839-43.179-177.060z" />
<glyph unicode="&#xe604;" glyph-name="arrow-down" d="M534.617 211.743l160.051 158.174c5.806 5.724 8.694 13.223 8.694 20.705 0 7.499-2.888 15.005-8.694 20.705-11.578 11.462-30.338 11.462-41.916 0l-109.411-108.151v351.826c0 16.176-13.292 29.3-29.652 29.3-16.377 0-29.635-13.124-29.635-29.3v-351.819l-109.459 108.151c-11.561 11.462-30.338 11.462-41.902 0-11.578-11.428-11.578-29.969 0-41.414l160.038-158.174c11.578-11.445 30.338-11.445 41.885-0.003z" />
<glyph unicode="&#xe605;" glyph-name="arrow-top" d="M492.732 675.724l-160.038-158.174c-11.578-11.445-11.578-29.986 0-41.414 11.564-11.462 30.341-11.462 41.902 0l109.459 108.151v-351.819c0-16.176 13.257-29.3 29.635-29.3 16.36 0 29.652 13.124 29.652 29.3v351.819l109.411-108.151c11.581-11.462 30.341-11.462 41.916 0 5.806 5.704 8.694 13.206 8.694 20.705 0 7.485-2.888 14.985-8.694 20.705l-160.051 158.174c-11.547 11.448-30.307 11.448-41.885 0.003z" />
<glyph unicode="&#xe606;" glyph-name="arrow-left" d="M281.586 424.53l158.246-166.598c5.745-6.001 13.281-9.039 20.733-9.039 7.54 0 14.995 3.041 20.733 9.039 11.441 12.080 11.441 31.573 0 43.65l-108.209 113.865h352.051c16.193 0 29.3 13.838 29.3 30.843 0 17.050-13.107 30.863-29.3 30.863h-352.051l108.209 113.886c11.441 12.059 11.441 31.594 0 43.653-11.438 12.039-29.986 12.039-41.465 0l-158.246-166.554c-11.479-12.076-11.479-31.611 0-43.609z" />
<glyph unicode="&#xe607;" glyph-name="arrow-right" d="M1002.462 460.971l-333.995 343.637c-24.163 24.859-63.341 24.859-87.504 0-24.163-24.856-24.163-65.13 0-89.986l228.4-234.96h-742.861c-34.205 0-61.85-28.535-61.85-63.741 0-35.202 27.645-63.532 61.85-63.532h742.864l-228.4-235.063c-24.163-24.958-24.163-65.126 0-89.982 12.083-12.435 27.942-18.695 43.752-18.695 15.807 0 31.614 6.26 43.749 18.695l333.995 343.641c24.166 24.856 24.166 65.126 0 89.986z" />
<glyph unicode="&#xe608;" glyph-name="arrow-right-latest-races" d="M745.786 468.142l-158.246 166.554c-11.479 12.039-30.031 12.039-41.465 0-11.441-12.059-11.441-31.59 0-43.653l108.209-113.886h-352.051c-16.193 0-29.3-13.814-29.3-30.863 0-17.005 13.107-30.843 29.3-30.843h352.048l-108.209-113.865c-11.441-12.076-11.441-31.57 0-43.65 5.741-6.001 13.193-9.039 20.733-9.039 7.455 0 14.991 3.041 20.733 9.039l158.246 166.598c11.482 11.994 11.482 31.529 0.003 43.609z" />
<glyph unicode="&#xe609;" glyph-name="athlete" d="M48.169 228.857c-27.928-5.359-46.213-32.256-40.861-60.126 4.697-24.545 26.313-41.656 50.49-41.656 3.205 0 6.526 0.335 9.728 0.973l211.801 40.571c12.097 2.348 22.897 8.854 30.594 18.487l90.935 114.463-30.392 15.476c-22.46 11.322-38.072 31.829-43.424 56.695l-85.787-107.957-193.082-36.925zM802.529 900.273c62.263 0 112.756-50.394 112.756-112.541 0-62.184-50.493-112.561-112.756-112.561-62.259 0-112.753 50.374-112.753 112.561 0 62.147 50.493 112.541 112.753 112.541zM556.493 815.913c-11.865 12.179-22.883 16.975-34.973 16.975-4.39 0-8.779-0.621-13.479-1.707l-193.512-45.807c-26.74-6.301-43.22-33.103-36.908-59.689 5.458-22.845 25.781-38.24 48.357-38.24 3.843 0 7.7 0.447 11.554 1.399l164.84 38.967c10.697-11.834 64.29-69.827 74.032-80.080v0c-68.147-72.823-136.294-145.534-204.431-218.358-1.075-1.178-2.028-2.352-3-3.519-19.886-25.3-13.797-65.038 16.159-80.087l208.913-106.462-108.476-175.442c-14.865-24.119-7.38-55.733 16.8-70.69 8.448-5.219 17.749-7.67 26.955-7.67v0c17.227 0 34.12 8.643 43.861 24.334l137.776 222.867c7.595 12.268 9.612 27.112 5.673 40.881-3.963 13.885-13.479 25.409-26.433 31.928l-141.513 71.878 148.797 158.877 112.305-95.034c9.322-7.895 20.76-11.738 32.099-11.738 12.196 0 24.392 4.478 33.911 13.237l128.894 119.91c20.118 18.681 21.303 50.084 2.584 70.154-9.851 10.458-23.112 15.8-36.376 15.8-12.076 0-24.272-4.369-33.789-13.237l-96.498-89.586c-0.096-0.116-241.862 226.888-284.122 270.138z" />
<glyph unicode="&#xe60a;" glyph-name="care-01-icon" d="M809.537 658.685c-13.155 2.72-26.030-5.506-28.812-18.367l-6.892-31.857c-16.394-1.413-26.853-4.878-36.301-8.021-10.332-3.444-18.456-6.158-36.734-6.158-18.275 0-26.419 2.714-36.755 6.158-12.206 4.062-26.068 8.68-52.388 8.68-26.276 0-40.137-4.622-52.367-8.68-10.332-3.444-18.48-6.158-36.745-6.158s-26.419 2.714-36.745 6.158c-12.223 4.062-26.081 8.68-52.378 8.68-26.3 0-40.158-4.622-52.378-8.68-10.332-3.444-18.48-6.158-36.731-6.158-18.275 0-26.423 2.714-36.734 6.158-9.455 3.144-19.903 6.612-36.301 8.021l-6.888 31.857c-2.775 12.861-15.664 21.088-28.812 18.367-13.128-2.734-21.521-15.363-18.739-28.235l81.022-374.757c2.383-11.015 12.302-18.893 23.781-18.893h401.848c11.465 0 21.388 7.881 23.76 18.893l81.012 374.757c2.789 12.872-5.608 25.501-18.726 28.235zM703.771 284.443h-362.435l-59.225 273.94c3.321-0.887 6.458-1.939 9.817-3.055 12.23-4.072 26.092-8.69 52.391-8.69 26.296 0 40.144 4.622 52.374 8.69 10.325 3.434 18.47 6.147 36.734 6.147 18.261 0 26.409-2.714 36.731-6.147 12.23-4.072 26.092-8.69 52.388-8.69 26.286 0 40.148 4.622 52.378 8.69 10.332 3.434 18.48 6.147 36.734 6.147 18.275 0 26.44-2.714 36.755-6.147 12.23-4.072 26.071-8.69 52.388-8.69 26.3 0 40.161 4.622 52.391 8.69 3.342 1.116 6.496 2.147 9.817 3.055l-59.238-273.94zM515.628 405.139h-23.091v111.933c0 6.577-5.434 11.913-12.148 11.913h-9.725c-4.127 0-7.974-2.055-10.209-5.455l-83.849-127.444c-1.27-1.918-1.939-4.147-1.939-6.438v-5.96c0-6.581 5.434-11.919 12.148-11.919h71.704v-40.486c0-6.581 5.434-11.902 12.148-11.902h9.725c6.714 0 12.148 5.325 12.148 11.902v40.486h23.091c6.714 0 12.151 5.338 12.151 11.919v9.53c-0.003 6.581-5.441 11.919-12.155 11.919zM423.096 405.118l35.424 53.934v-53.914l-35.424-0.020zM601.904 531.367c-43.54 0-68.536-24.75-68.536-67.878v-78.599c0-43.151 24.996-67.901 68.536-67.901 43.561 0 68.536 24.75 68.536 67.901v78.599c0 43.127-24.975 67.878-68.536 67.878zM602.648 349.867h-1.468c-24.272 0-33.287 10.148-33.287 37.393v73.837c0 27.255 9.015 37.393 33.287 37.393h1.468c24.272 0 33.29-10.138 33.29-37.393v-73.837c0-27.245-9.018-37.393-33.29-37.393z" />
<glyph unicode="&#xe60b;" glyph-name="care-02-icon" d="M782.152 734.993l-45.937-559.865h-427.554l-45.889 559.865h519.38zM782.152 758.289h-519.38c-6.431 0-12.544-2.734-16.916-7.533-4.328-4.82-6.513-11.22-5.973-17.743l45.906-559.848c1-12.087 10.933-21.354 22.897-21.354h427.527c11.984 0 21.886 9.267 22.886 21.354l45.923 559.848c0.55 6.523-1.635 12.923-5.984 17.743-4.369 4.799-10.455 7.533-16.886 7.533v0zM299.616 566.207l20.825-254.044h403.971l20.828 254.044h-445.624zM499.791 478.089l-23.46-65.516c-3.83-10.701-15.486-16.254-26.051-12.332l-64.474 23.825c-10.523 3.881-15.978 15.742-12.148 26.481l23.46 65.478c3.847 10.718 15.486 16.251 26.051 12.373l64.468-23.866c10.564-3.901 15.995-15.722 12.155-26.443zM672.191 387.055l-64.335-24.173c-10.516-3.983-22.193 1.492-26.112 12.206l-23.788 65.355c-3.857 10.697 1.492 22.559 12.008 26.522l64.335 24.204c10.513 3.929 22.193-1.519 26.112-12.24l23.784-65.335c3.919-10.718-1.471-22.6-12.005-26.539z" />
<glyph unicode="&#xe60c;" glyph-name="care-03-icon" d="M455.52 279.849h303.278c5.202 0 9.404 4.325 9.404 9.629v211.087c-10.243-10.489-26.836-10.489-37.079 0-4.915 5.031-11.595 7.868-18.541 7.868s-13.582-2.836-18.5-7.868c-10.264-10.489-26.836-10.51-37.079-0.020-10.243 10.51-26.856 10.51-37.079 0-10.243-10.489-26.836-10.489-37.079 0-10.243 10.51-26.836 10.51-37.079 0-6.922-7.066-16.623-8.953-25.423-6.482 6.26-19.166 9.772-39.591 9.772-60.873-0.003-62.587-29.372-118.101-74.595-153.341zM711.472 459.39c22.453 0 40.707-18.722 40.707-41.731s-18.234-41.711-40.707-41.711c-22.432 0-40.687 18.702-40.687 41.711s18.255 41.731 40.687 41.731zM711.472 398.711c10.223 0 18.5 8.503 18.5 18.951s-8.277 18.951-18.5 18.951c-10.179 0-18.5-8.503-18.5-18.951s8.322-18.951 18.5-18.951zM819.907 699.733c-15.322 0-27.74-12.742-27.74-28.436v-410.047c0-4.468-3.543-8.113-7.905-8.113h-367.111c-1.659 0-3.133 0.676-4.413 1.577-17.384-7.253-36.065-11.841-55.579-13.442 8.274-26.016 31.887-45.008 59.993-45.008h367.111c34.949 0 63.382 29.153 63.382 64.983v410.051c0 15.705-12.414 28.436-27.737 28.436zM409.272 671.297c0 15.705-12.425 28.436-27.75 28.436-15.322 0-27.747-12.732-27.747-28.436v-46.032c19.442-1.229 38.062-5.461 55.497-12.312v58.344zM507.914 433.19c0 93.693-74.377 169.929-165.782 169.929-91.409 0-165.775-76.237-165.775-169.929 0-93.703 74.366-169.933 165.786-169.933 91.406 0 165.772 76.23 165.772 169.933zM342.139 308.756c-66.939 0-121.392 55.822-121.392 124.433 0 68.608 54.453 124.409 121.392 124.409 66.929 0 121.382-55.805 121.382-124.409 0-68.608-54.453-124.433-121.382-124.433zM389.861 424.605l-16.643 9.878c-0.41 10.817-6.045 20.241-14.432 25.689v44.421c0 9.434-7.458 17.067-16.654 17.067-9.189 0-16.643-7.632-16.643-17.067v-44.425c-8.728-5.676-14.568-15.609-14.568-26.979 0-17.681 13.981-32 31.212-32 5.233 0 10.059 1.434 14.38 3.748l16.667-9.875c2.642-1.556 5.499-2.294 8.318-2.294 5.748 0 11.339 3.055 14.442 8.523 4.594 8.154 1.881 18.603-6.079 23.313zM661.221 525.172c21.224 0 38.513 17.708 38.513 39.485s-17.289 39.485-38.513 39.485c-21.262 0-38.533-17.719-38.533-39.485 0-21.787 17.268-39.485 38.533-39.485zM661.221 581.386c8.974 0 16.305-7.52 16.305-16.736s-7.332-16.715-16.305-16.715c-9.015 0-16.346 7.499-16.346 16.715 0 9.236 7.332 16.736 16.346 16.736zM710.223 628.115c18.026 0 32.696 15.025 32.696 33.516 0 18.497-14.671 33.516-32.696 33.516s-32.696-15.036-32.696-33.516c0-18.49 14.671-33.516 32.696-33.516zM710.223 672.396c5.775 0 10.51-4.826 10.51-10.766 0-5.943-4.734-10.766-10.51-10.766-5.796 0-10.489 4.826-10.489 10.766s4.693 10.766 10.489 10.766z" />
<glyph unicode="&#xe60d;" glyph-name="care-04-icon" d="M864.102 341.129l-35.891 165.871-28.474 145.463c-2.348 11.923-12.937 20.531-25.225 20.531h-286.638c-14.186 0-25.692-11.346-25.692-25.347 0-13.991 11.506-25.347 25.692-25.347h265.428l16.22-82.917h-295.991c-78.81 0-154.242-33.649-218.15-97.311-47.35-47.165-71.813-94.17-72.827-96.137-4.045-7.871-3.669-17.217 1.004-24.74 4.676-7.523 12.967-12.087 21.9-12.087h269.92l25.692 25.347-25.692 25.351h-223.328c10.363 14.172 24.037 30.983 40.899 47.63 54.545 53.92 115.309 81.254 180.582 81.254h306.094l27.88-128.884h-135.393l-25.672-25.351 25.672-25.347h167.151c0.020 0 0.020 0 0.041 0 14.172 0 25.692 11.336 25.692 25.347 0 2.294-0.328 4.543-0.894 6.673zM610.103 334.455l76.042 75.011c10.018 9.892 10.018 25.935 0 35.85-10.039 9.895-26.32 9.895-36.338 0l-76.039-75.025-76.063 75.025c-10.028 9.895-26.3 9.895-36.338 0-10.028-9.916-10.028-25.955 0-35.85l76.059-75.011-76.059-75.008c-10.028-9.895-10.028-25.935 0-35.85 5.018-4.946 11.599-7.424 18.169-7.424 6.581 0 13.158 2.478 18.169 7.424l76.063 75.025 76.039-75.025c5.011-4.946 11.599-7.424 18.169-7.424s13.141 2.478 18.169 7.424c10.018 9.892 10.018 25.955 0 35.85l-76.042 75.008z" />
<glyph unicode="&#xe60e;" glyph-name="care-05-icon" d="M522.469 171.875c-109.868 0-199.27 90.976-199.27 202.79 0 107.8 180.709 348.993 188.378 359.175 5.192 6.926 16.572 6.926 21.767 0 7.704-10.182 188.43-251.375 188.43-359.175 0.003-111.811-89.395-202.79-199.305-202.79zM522.469 702.058c-39.356-54.258-171.851-243.193-171.851-327.39 0-96.427 77.1-174.868 171.851-174.868 94.788 0 171.875 78.442 171.875 174.868 0.003 84.197-132.482 273.132-171.875 327.39zM533.183 224.976c-5.83 0-11.226 3.809-13.090 9.748-2.277 7.332 1.7 15.179 8.909 17.538 54.903 17.804 97.147 62.092 113.022 118.449 2.065 7.458 9.711 11.8 16.94 9.588 7.274-2.13 11.493-9.854 9.424-17.248-18.398-65.393-67.396-116.774-131.052-137.38-1.41-0.492-2.761-0.696-4.154-0.696z" />
<glyph unicode="&#xe60f;" glyph-name="care-06-icon" d="M779.708 232.527l-245.466 448.86c-4.478 8.158-12.995 13.227-22.241 13.227-9.257 0-17.773-5.065-22.241-13.227l-245.477-448.86c-4.335-7.933-4.192-17.579 0.375-25.392 4.567-7.769 12.879-12.575 21.862-12.575h490.95c8.994 0 17.292 4.803 21.873 12.575 4.577 7.813 4.7 17.459 0.365 25.392zM309.524 245.753l202.476 370.237 202.476-370.237h-404.951zM464.712 431.155c-6.605 6.673-17.326 6.673-23.938 0-6.615-6.673-6.615-17.456 0-24.129l47.278-47.674-47.278-47.654c-6.615-6.673-6.615-17.48 0-24.153 3.304-3.338 7.639-4.987 11.964-4.987 4.335 0 8.67 1.649 11.974 4.987l47.288 47.674 47.288-47.654c3.297-3.338 7.629-5.007 11.964-5.007 4.338 0 8.67 1.669 11.967 5.007 6.612 6.653 6.612 17.459 0 24.132l-47.288 47.654 47.288 47.674c6.612 6.673 6.612 17.456 0 24.129-6.595 6.673-17.336 6.673-23.931 0l-47.288-47.654-47.288 47.654z" />
<glyph unicode="&#xe610;" glyph-name="hotel" d="M991.809 722.091l-189.641 63.351c-0.014 0-0.038 0-0.072 0h0.020c0 0-3.017 1.171-7.294 0.737-4.263-0.474-7.257-2.7-7.257-2.7l-106.312-70.588c-4.823-3.188-7.711-8.636-7.711-14.496v-193.318l-5.902 0.437v312.293c0 7.482-4.71 14.118-11.684 16.435l-343.774 114.811c0 0-3.97 1.28-7.642 0.679-4.41-0.737-7.625-3.092-7.625-3.092l-251.286-182.197c-4.492-3.243-7.161-8.482-7.161-14.097v-646.762c0-6.339 3.393-12.141 8.841-15.155l251.368-140.032c0 0 2.601-1.58 6.185-2.034 3.56-0.413 6.171 0.379 6.171 0.379l679.612 174.428c7.54 1.922 12.82 8.841 12.82 16.756l0.055 567.712c0.017 7.52-4.734 14.118-11.711 16.452zM89.754 185.289c0-1.881-0.905-3.656-2.413-4.727-0.973-0.679-2.099-1.041-3.236-1.041-0.676 0-1.328 0.096-1.98 0.358l-14.684 5.485c-2.222 0.826-3.724 3.011-3.724 5.407v47.483c0 1.785 0.85 3.502 2.236 4.598 1.403 1.089 3.253 1.437 4.946 0.976l14.691-4.144c2.441-0.717 4.137-2.997 4.137-5.56v-48.841h0.027v0.007zM89.754 282.931c0-1.717-0.737-3.338-2.055-4.451-1.038-0.847-2.29-1.297-3.622-1.297-0.358 0-0.689 0.038-1.048 0.089l-14.684 2.789c-2.686 0.526-4.635 2.922-4.635 5.693v47.479c0 1.621 0.669 3.171 1.867 4.277 1.195 1.092 2.768 1.625 4.362 1.454l14.684-1.454c2.901-0.297 5.106-2.782 5.106-5.748v-48.838h0.024zM89.754 380.57c0-1.546-0.584-3.038-1.659-4.113-1.068-1.058-2.499-1.655-3.987-1.655-0.017 0-0.044 0-0.044 0l-14.684 0.092c-3.11 0.061-5.646 2.618-5.646 5.786v47.483c0 2.997 2.273 5.499 5.212 5.751l14.684 1.222c1.591 0.15 3.13-0.396 4.304-1.492 1.181-1.113 1.83-2.625 1.83-4.239v-48.838h-0.010zM89.754 478.188c0-2.789-1.997-5.185-4.7-5.673l-14.684-2.584c-0.331-0.075-0.649-0.092-0.963-0.092-1.348 0-2.628 0.471-3.656 1.355-1.28 1.113-2.034 2.714-2.034 4.431v47.483c0 2.618 1.744 4.881 4.212 5.581l14.681 3.939c1.727 0.451 3.533 0.075 4.919-1.038 1.386-1.075 2.188-2.772 2.188-4.56v-48.838h0.038v-0.003zM89.754 575.826c0-2.434-1.509-4.635-3.779-5.448l-14.684-5.277c-0.601-0.208-1.232-0.321-1.884-0.321-1.178 0-2.307 0.375-3.277 1.055-1.498 1.075-2.393 2.847-2.393 4.71v47.483c0 2.26 1.321 4.352 3.383 5.277l14.681 6.636c1.734 0.792 3.779 0.601 5.393-0.454 1.601-1.092 2.563-2.901 2.563-4.844v-48.817zM89.754 673.444c0-2.147-1.147-4.072-2.997-5.089l-14.684-7.953c-0.85-0.451-1.772-0.683-2.669-0.683-1.024 0-2.045 0.304-2.939 0.829-1.707 1.055-2.751 2.905-2.751 4.939v47.466c0 1.997 1.007 3.864 2.669 4.902l14.684 9.312c1.765 1.109 3.946 1.167 5.748 0.15 1.809-1.038 2.918-2.939 2.918-5.052v-48.821h0.020zM139.271 166.758c0-1.864-0.905-3.656-2.42-4.714-0.963-0.676-2.123-1.051-3.253-1.051-0.649 0-1.3 0.113-1.963 0.372l-17.493 6.557c-2.222 0.816-3.724 2.983-3.724 5.396v51.756c0 1.789 0.823 3.485 2.236 4.601 1.406 1.072 3.232 1.437 4.949 0.959l17.483-4.953c2.461-0.7 4.157-2.976 4.157-5.56v-53.367h0.027v0.003zM139.271 273.466c0-1.696-0.754-3.318-2.065-4.451-1.027-0.826-2.307-1.314-3.628-1.314-0.358 0-0.7 0.055-1.058 0.113l-17.473 3.331c-2.697 0.509-4.646 2.901-4.646 5.676v51.739c0 1.621 0.669 3.185 1.874 4.277 1.215 1.072 2.792 1.628 4.366 1.475l17.5-1.737c2.922-0.304 5.127-2.785 5.127-5.769v-53.34zM139.271 380.15c0-1.502-0.594-3.017-1.686-4.069-1.065-1.072-2.499-1.676-3.987-1.676 0 0-0.017 0-0.038 0l-17.483 0.13c-3.11 0.017-5.646 2.601-5.646 5.786v51.726c0 3.014 2.243 5.519 5.212 5.765l17.493 1.451c1.57 0.15 3.127-0.416 4.304-1.492s1.83-2.621 1.83-4.222v-53.398zM139.271 486.874c0-2.809-1.997-5.199-4.71-5.69l-17.493-3.055c-0.338-0.055-0.659-0.092-0.963-0.092-1.328 0-2.628 0.505-3.683 1.376-1.283 1.113-2.017 2.714-2.017 4.41v51.739c0 2.639 1.741 4.919 4.219 5.598l17.504 4.693c1.696 0.43 3.526 0.072 4.891-1.038 1.386-1.092 2.208-2.772 2.208-4.56v-53.381h0.044zM139.271 593.599c0-2.451-1.509-4.635-3.806-5.465l-17.476-6.26c-0.611-0.242-1.263-0.338-1.884-0.338-1.178 0-2.318 0.358-3.277 1.058-1.516 1.092-2.396 2.843-2.396 4.71v51.756c0 2.263 1.3 4.338 3.376 5.263l17.483 7.878c1.765 0.775 3.799 0.625 5.4-0.433 1.615-1.055 2.584-2.884 2.584-4.844v-53.327zM139.271 700.286c0-2.15-1.157-4.093-3.007-5.089l-17.48-9.499c-0.829-0.433-1.754-0.642-2.659-0.642-1.038 0-2.034 0.266-2.939 0.792-1.707 1.055-2.755 2.939-2.755 4.939v51.756c0 1.959 0.997 3.843 2.659 4.902l17.5 11.083c1.761 1.109 3.949 1.188 5.758 0.15 1.809-1.021 2.922-2.963 2.922-5.035v-53.357zM198.919 144.483c0-1.908-0.894-3.676-2.413-4.751-0.969-0.7-2.12-1.034-3.232-1.034-0.679 0-1.321 0.109-1.98 0.335l-21.19 7.939c-2.232 0.85-3.717 3.014-3.717 5.427v56.873c0 1.782 0.816 3.482 2.222 4.594 1.386 1.075 3.232 1.417 4.939 0.942l21.214-5.977c2.43-0.696 4.137-2.953 4.137-5.553v-58.795h0.020zM198.919 262.103c0-1.713-0.751-3.342-2.055-4.451-1.027-0.85-2.311-1.321-3.611-1.321-0.358 0-0.717 0.038-1.055 0.096l-21.214 4.031c-2.686 0.526-4.618 2.908-4.618 5.693v56.87c0 1.621 0.669 3.168 1.847 4.256 1.198 1.072 2.789 1.625 4.366 1.475l21.197-2.113c2.918-0.3 5.123-2.772 5.123-5.765v-58.771h0.020zM198.919 379.737c0-1.546-0.584-3.034-1.669-4.106-1.055-1.079-2.505-1.659-3.977-1.659-0.020 0-0.038 0-0.065 0l-21.197 0.171c-3.11 0.017-5.598 2.58-5.598 5.762v56.914c0 2.976 2.243 5.482 5.185 5.731l21.214 1.768c1.574 0.15 3.13-0.416 4.308-1.505 1.167-1.092 1.83-2.621 1.83-4.222v-58.846h-0.031v-0.007zM198.919 497.336c0-2.809-1.987-5.199-4.7-5.673l-21.214-3.734c-0.311-0.075-0.635-0.075-0.963-0.075-1.328 0-2.628 0.454-3.656 1.335-1.28 1.099-2.017 2.7-2.017 4.413v56.87c0 2.621 1.724 4.881 4.222 5.577l21.193 5.676c1.696 0.451 3.526 0.092 4.891-1.021 1.386-1.092 2.225-2.789 2.225-4.577v-58.791h0.017zM198.919 614.991c0-2.451-1.505-4.635-3.779-5.448l-21.214-7.615c-0.614-0.188-1.236-0.338-1.888-0.338-1.157 0-2.287 0.375-3.277 1.072-1.495 1.092-2.376 2.847-2.376 4.714v56.887c0 2.284 1.297 4.335 3.362 5.26l21.187 9.537c1.775 0.792 3.806 0.642 5.4-0.413 1.625-1.075 2.58-2.905 2.58-4.864v-58.791zM198.919 732.611c0-2.133-1.147-4.093-2.997-5.089l-21.214-11.479c-0.84-0.454-1.741-0.679-2.666-0.679-1.007 0-2.034 0.283-2.922 0.829-1.707 1.038-2.751 2.922-2.751 4.936v56.87c0 1.997 1.010 3.843 2.666 4.902l21.193 13.421c1.782 1.092 3.97 1.15 5.779 0.133 1.812-1 2.918-2.942 2.918-5.052v-58.788h-0.007zM272.196 117.077c0-1.901-0.905-3.676-2.42-4.734-0.99-0.696-2.123-1.055-3.253-1.055-0.649 0-1.3 0.113-1.959 0.355l-26.208 9.803c-2.225 0.829-3.724 3.017-3.724 5.431v63.123c0 1.792 0.819 3.468 2.225 4.601 1.413 1.072 3.243 1.413 4.936 0.945l26.221-7.393c2.458-0.696 4.157-2.98 4.157-5.56v-65.519h0.024v0.003zM272.196 248.115c0-1.713-0.754-3.342-2.065-4.434-1.024-0.867-2.307-1.318-3.625-1.318-0.358 0-0.7 0.038-1.055 0.096l-26.221 4.99c-2.669 0.512-4.618 2.888-4.618 5.693v63.106c0 1.625 0.679 3.188 1.867 4.26 1.188 1.109 2.778 1.625 4.352 1.471l26.218-2.601c2.915-0.304 5.12-2.772 5.12-5.734v-65.533h0.027v0.003zM272.196 379.174c0-1.546-0.594-3.058-1.679-4.127-1.082-1.058-2.505-1.659-3.994-1.659 0 0-0.017 0-0.048 0l-26.208 0.205c-3.113 0.038-5.635 2.587-5.635 5.765v63.167c0 2.997 2.253 5.489 5.212 5.748l26.201 2.185c1.611 0.15 3.147-0.389 4.325-1.485 1.147-1.12 1.83-2.639 1.83-4.246v-65.553h-0.003zM272.196 510.228c0-2.826-1.997-5.222-4.731-5.711l-26.191-4.598c-0.341-0.058-0.649-0.075-0.99-0.075-1.3 0-2.621 0.451-3.656 1.355-1.28 1.072-2.017 2.714-2.017 4.393v63.123c0 2.625 1.724 4.902 4.222 5.581l26.221 6.994c1.693 0.433 3.502 0.075 4.888-0.997 1.389-1.13 2.225-2.789 2.225-4.581v-65.481h0.027v-0.003zM272.196 641.249c0-2.43-1.516-4.635-3.806-5.427l-26.214-9.407c-0.611-0.205-1.263-0.355-1.894-0.355-1.147 0-2.29 0.396-3.249 1.075-1.519 1.092-2.406 2.843-2.406 4.731v63.102c0 2.26 1.3 4.372 3.362 5.277l26.221 11.8c1.761 0.809 3.796 0.621 5.39-0.413 1.625-1.058 2.594-2.905 2.594-4.844v-65.539zM272.196 772.287c0-2.13-1.161-4.069-3.028-5.069l-26.218-14.193c-0.819-0.454-1.744-0.676-2.666-0.676-1.007 0-2.017 0.263-2.922 0.826-1.696 1.038-2.751 2.922-2.751 4.939v63.123c0 1.983 1.007 3.847 2.666 4.922l26.221 16.585c1.744 1.092 3.966 1.167 5.758 0.15 1.778-1.017 2.912-2.959 2.912-5.048v-65.56h0.027zM411.436 119.016c0-2.826-2.021-5.199-4.755-5.714l-60.484-10.4c-0.341-0.038-0.631-0.096-0.942-0.096-1.328 0-2.649 0.474-3.683 1.376-1.273 1.096-2.017 2.676-2.017 4.39v67.615c0 2.888 2.12 5.335 4.939 5.693l60.515 7.857c1.601 0.249 3.243-0.28 4.485-1.355 1.225-1.13 1.922-2.676 1.922-4.335v-65.031h0.020zM411.436 249.095c0-2.973-2.246-5.482-5.185-5.707l-60.515-5.321c-0.167-0.017-0.338-0.017-0.481-0.017-1.413 0-2.796 0.505-3.843 1.492-1.188 1.113-1.857 2.656-1.857 4.256v67.065c0 3.092 2.376 5.635 5.42 5.765l60.522 2.809c1.584 0.075 3.055-0.505 4.147-1.604 1.133-1.072 1.772-2.601 1.772-4.144v-64.601h0.020v0.007zM411.436 379.208c0-3.202-2.55-5.765-5.676-5.782l-60.484-0.225c-0.020 0-0.020 0-0.020 0-1.516 0-2.97 0.591-4.014 1.679-1.072 1.072-1.659 2.54-1.659 4.065v67.615c0 1.563 0.625 3.069 1.744 4.168 1.113 1.072 2.604 1.655 4.137 1.584l60.525-2.324c3.034-0.089 5.451-2.656 5.451-5.741v-65.038h-0.003zM411.436 509.307c0-1.604-0.662-3.164-1.83-4.226-1.079-0.98-2.43-1.543-3.867-1.543-0.13 0-0.283 0.020-0.433 0.020l-60.505 4.881c-2.959 0.246-5.222 2.755-5.222 5.769v67.611c0 1.625 0.689 3.205 1.905 4.301 1.222 1.113 2.836 1.621 4.454 1.413l60.498-7.465c2.864-0.358 4.997-2.809 4.997-5.711v-65.051h0.003zM411.436 639.403c0-1.713-0.737-3.318-2.021-4.41-1.017-0.887-2.338-1.376-3.676-1.376-0.317 0-0.584 0.017-0.887 0.058l-60.532 10.025c-2.751 0.437-4.768 2.864-4.768 5.693v67.591c0 1.734 0.765 3.352 2.103 4.485 1.3 1.075 3.024 1.509 4.731 1.167l60.505-12.534c2.639-0.567 4.547-2.922 4.547-5.673v-65.027zM411.436 769.478c0-1.754-0.792-3.447-2.188-4.543-1-0.788-2.263-1.242-3.505-1.242-0.433 0-0.887 0.058-1.338 0.188l-60.498 15.077c-2.546 0.642-4.325 2.983-4.325 5.618v67.632c0 1.812 0.84 3.509 2.243 4.598 1.434 1.113 3.263 1.434 4.98 0.945l60.505-17.64c2.43-0.717 4.106-2.983 4.106-5.56v-65.068h0.020zM519.704 137.66c0-2.809-2.024-5.202-4.748-5.693l-52.163-8.994c-0.321-0.055-0.642-0.072-0.942-0.072-1.321 0-2.639 0.454-3.656 1.355-1.28 1.096-2.034 2.717-2.034 4.393v62.689c0 2.905 2.113 5.376 4.936 5.728l52.18 6.793c1.621 0.205 3.236-0.324 4.468-1.396 1.219-1.113 1.942-2.659 1.942-4.318v-60.488h0.017v0.003zM519.704 258.615c0-2.993-2.243-5.482-5.188-5.731l-52.173-4.584c-0.147-0.034-0.338-0.034-0.471-0.034-1.417 0-2.809 0.543-3.847 1.526-1.188 1.092-1.847 2.635-1.847 4.256v62.641c0 3.106 2.393 5.635 5.448 5.782l52.132 2.372c1.512 0.116 3.075-0.488 4.171-1.58 1.13-1.089 1.775-2.604 1.775-4.151v-60.498zM519.704 379.587c0-3.168-2.55-5.762-5.676-5.799l-52.173-0.16c-1.509 0-2.939 0.57-4.014 1.659-1.075 1.092-1.679 2.57-1.679 4.069v62.713c0 1.563 0.621 3.092 1.734 4.168 1.109 1.092 2.635 1.676 4.164 1.58l52.135-1.993c3.069-0.116 5.489-2.679 5.489-5.786v-60.45h0.020zM519.704 500.545c0-1.604-0.676-3.13-1.826-4.226-1.079-0.98-2.454-1.509-3.867-1.509-0.154 0-0.321 0-0.471 0.020l-52.159 4.202c-2.959 0.222-5.219 2.734-5.219 5.765v62.638c0 1.659 0.679 3.222 1.922 4.297 1.225 1.133 2.826 1.621 4.451 1.434l52.132-6.448c2.864-0.341 5.021-2.789 5.021-5.711v-60.447h0.017v-0.017zM519.704 621.513c0-1.676-0.741-3.277-2.024-4.39-1.034-0.905-2.331-1.376-3.669-1.376-0.321 0-0.621 0.017-0.905 0.092l-52.156 8.595c-2.755 0.454-4.789 2.884-4.789 5.714v62.689c0 1.734 0.775 3.376 2.092 4.468 1.3 1.096 3.072 1.529 4.731 1.191l52.156-10.82c2.656-0.546 4.564-2.901 4.564-5.656v-60.508zM519.704 742.472c0-1.775-0.809-3.434-2.174-4.526-1.017-0.829-2.256-1.246-3.502-1.246-0.471 0-0.905 0.038-1.376 0.171l-52.152 13.005c-2.526 0.625-4.318 2.959-4.318 5.618v62.672c0 1.83 0.85 3.526 2.26 4.622 1.413 1.092 3.263 1.413 4.956 0.942l52.156-15.23c2.434-0.696 4.134-2.956 4.134-5.56v-60.464h0.017zM613.762 153.87c0-2.809-2-5.219-4.734-5.693l-45.428-7.823c-0.338-0.072-0.638-0.089-0.963-0.089-1.3 0-2.635 0.468-3.676 1.352-1.256 1.113-1.993 2.717-1.993 4.413v58.412c0 2.918 2.113 5.352 4.939 5.731l45.421 5.902c1.628 0.208 3.243-0.283 4.475-1.379 1.239-1.092 1.935-2.673 1.935-4.314v-56.511h0.024zM613.762 266.909c0-3.014-2.249-5.502-5.188-5.751l-45.442-4.021c-0.167 0-0.317 0-0.495 0-1.41 0-2.775 0.529-3.86 1.512-1.171 1.089-1.809 2.621-1.809 4.215v58.436c0 3.072 2.376 5.618 5.431 5.765l45.425 2.072c1.526 0.075 3.055-0.495 4.151-1.587 1.126-1.085 1.768-2.598 1.768-4.161v-56.491h0.020zM613.762 379.928c0-3.185-2.529-5.751-5.673-5.786l-45.431-0.15c0 0 0 0-0.041 0-1.464 0-2.935 0.584-3.973 1.676-1.072 1.075-1.659 2.563-1.659 4.069v58.429c0 1.567 0.604 3.092 1.734 4.154 1.113 1.089 2.587 1.655 4.151 1.597l45.425-1.751c3.038-0.096 5.472-2.656 5.472-5.734v-56.504zM613.762 492.947c0-1.604-0.662-3.168-1.83-4.243-1.058-0.98-2.413-1.526-3.864-1.526-0.15 0-0.283 0-0.433 0.017l-45.445 3.676c-2.939 0.266-5.202 2.755-5.202 5.751v58.416c0 1.659 0.696 3.202 1.905 4.314 1.225 1.092 2.826 1.601 4.451 1.393l45.428-5.594c2.864-0.341 4.997-2.789 4.997-5.711v-56.494zM613.762 605.983c0-1.713-0.737-3.318-2-4.393-1.038-0.908-2.359-1.376-3.693-1.376-0.283 0-0.584 0.020-0.908 0.075l-45.445 7.523c-2.755 0.451-4.748 2.867-4.748 5.69v58.412c0 1.754 0.754 3.376 2.072 4.489 1.352 1.092 3.072 1.509 4.755 1.167l45.425-9.387c2.639-0.567 4.543-2.922 4.543-5.673v-56.528zM613.762 719.002c0-1.772-0.788-3.471-2.188-4.543-1.004-0.809-2.225-1.246-3.505-1.246-0.433 0-0.908 0.058-1.341 0.171l-45.425 11.346c-2.526 0.625-4.321 2.939-4.321 5.598v58.433c0 1.812 0.85 3.526 2.243 4.622 1.396 1.072 3.26 1.413 4.973 0.942l45.431-13.288c2.434-0.7 4.106-2.983 4.106-5.543v-56.491h0.027zM802.533 89.279c0-2.642-1.778-4.943-4.284-5.605l-146.244-37.523c-0.44-0.116-0.911-0.177-1.359-0.177-1.263 0-2.488 0.413-3.488 1.208-1.372 1.113-2.188 2.775-2.188 4.557v328.298c0 0.587 0.891 60.621 83.446 57.45 73.305-2.768 74.134-56.354 74.134-56.917v-291.29h-0.017zM863.939 196.936c0-2.806-1.997-5.219-4.714-5.67l-29.86-5.144c-0.335-0.075-0.614-0.092-0.959-0.092-1.318 0-2.615 0.468-3.652 1.335-1.283 1.133-2.017 2.737-2.017 4.451v47.213c0 2.908 2.113 5.376 4.936 5.714l29.88 3.919c1.597 0.208 3.222-0.317 4.465-1.393 1.208-1.109 1.922-2.676 1.922-4.338v-45.995zM863.939 288.867c0-2.976-2.222-5.482-5.168-5.731l-29.873-2.625c-0.167-0.017-0.341-0.017-0.468-0.017-1.437 0-2.792 0.546-3.867 1.492-1.167 1.113-1.83 2.656-1.83 4.26v47.237c0 3.072 2.376 5.618 5.431 5.731l29.856 1.372c1.546 0.092 3.069-0.488 4.168-1.587 1.147-1.089 1.768-2.574 1.768-4.161v-45.974h-0.017zM863.939 381.167c0-3.185-2.522-5.765-5.635-5.765l-29.87-0.113c0 0 0 0-0.027 0-1.485 0-2.935 0.611-3.973 1.679-1.092 1.092-1.659 2.543-1.659 4.086v46.828c0 1.56 0.604 3.055 1.713 4.168 1.113 1.113 2.604 1.673 4.171 1.601l29.833-1.167c3.041-0.113 5.485-2.659 5.485-5.769v-45.544h-0.038zM863.939 472.74c0-1.621-0.659-3.164-1.809-4.243-1.072-0.997-2.447-1.526-3.86-1.526-0.154 0-0.324 0-0.457 0l-29.877 2.43c-2.935 0.229-5.199 2.734-5.199 5.755v47.234c0 1.621 0.696 3.185 1.922 4.294 1.208 1.096 2.826 1.621 4.427 1.396l29.88-3.676c2.847-0.338 4.973-2.809 4.973-5.728v-45.937zM863.939 564.647c0-1.696-0.717-3.297-1.997-4.41-1.038-0.905-2.338-1.355-3.7-1.355-0.297 0-0.597 0-0.881 0.075l-29.877 4.919c-2.751 0.433-4.765 2.884-4.765 5.673v47.254c0 1.734 0.751 3.355 2.092 4.468 1.318 1.096 3.055 1.509 4.751 1.188l29.836-6.202c2.656-0.546 4.557-2.901 4.557-5.652v-45.954h-0.017zM863.939 656.555c0-1.772-0.792-3.451-2.15-4.543-1.034-0.809-2.256-1.225-3.502-1.225-0.451 0-0.908 0.038-1.359 0.15l-29.891 7.465c-2.509 0.642-4.301 2.98-4.301 5.618v47.196c0 1.83 0.829 3.546 2.263 4.618 1.41 1.092 3.256 1.451 4.977 0.942l29.856-8.707c2.451-0.696 4.106-2.959 4.106-5.56v-45.954zM919.129 206.476c0-2.826-2.014-5.199-4.751-5.69l-26.86-4.656c-0.321-0.041-0.621-0.058-0.942-0.058-1.338 0-2.618 0.433-3.669 1.341-1.287 1.092-2.021 2.714-2.021 4.39v44.783c0 2.905 2.13 5.352 4.96 5.731l26.853 3.488c1.628 0.225 3.246-0.3 4.471-1.396 1.242-1.092 1.939-2.652 1.939-4.318v-43.616h0.020zM919.129 293.714c0-3-2.243-5.489-5.181-5.769l-26.863-2.335c-0.167-0.020-0.338-0.020-0.492-0.020-1.393 0-2.789 0.522-3.843 1.502-1.171 1.092-1.85 2.635-1.85 4.263v44.742c0 3.092 2.393 5.635 5.448 5.772l26.863 1.222c1.543 0.113 3.055-0.495 4.147-1.567 1.147-1.096 1.772-2.584 1.772-4.164v-43.646zM919.129 380.959c0-3.164-2.526-5.762-5.673-5.762l-26.88-0.113c-1.488 0-2.935 0.604-3.994 1.696-1.075 1.092-1.679 2.54-1.679 4.089v44.786c0 1.584 0.628 3.086 1.737 4.164 1.13 1.089 2.618 1.676 4.147 1.604l26.873-1.055c3.058-0.113 5.472-2.683 5.472-5.751v-43.66h-0.003zM919.129 468.272c0-1.601-0.642-3.168-1.83-4.239-1.034-1-2.427-1.529-3.86-1.529-0.15 0-0.307 0.020-0.433 0.020l-26.86 2.144c-2.98 0.266-5.243 2.755-5.243 5.772v44.783c0 1.642 0.696 3.205 1.922 4.301 1.229 1.092 2.847 1.621 4.454 1.393l26.86-3.277c2.847-0.379 4.994-2.83 4.994-5.731v-43.636h-0.003zM919.129 555.54c0-1.713-0.734-3.314-2.014-4.41-1.038-0.887-2.321-1.372-3.676-1.372-0.307 0-0.591 0.017-0.908 0.055l-26.863 4.451c-2.748 0.451-4.782 2.884-4.782 5.711v44.766c0 1.734 0.775 3.372 2.092 4.468 1.3 1.092 3.055 1.546 4.734 1.188l26.853-5.581c2.662-0.509 4.564-2.922 4.564-5.635v-43.639zM919.129 642.792c0-1.772-0.788-3.43-2.185-4.56-1-0.788-2.246-1.205-3.505-1.205-0.433 0-0.908 0.038-1.355 0.171l-26.842 6.69c-2.546 0.604-4.338 2.942-4.338 5.601v44.766c0 1.809 0.829 3.526 2.263 4.598 1.413 1.13 3.26 1.451 4.977 0.942l26.842-7.823c2.447-0.713 4.123-2.959 4.123-5.557v-43.619h0.020v-0.003zM969.008 215.033c0-2.789-2.021-5.199-4.751-5.693l-24.32-4.168c-0.335-0.055-0.614-0.072-0.939-0.072-1.338 0-2.639 0.451-3.676 1.335-1.263 1.113-2.014 2.72-2.014 4.396v42.578c0 2.884 2.127 5.352 4.96 5.69l24.289 3.171c1.625 0.225 3.246-0.304 4.489-1.376 1.236-1.096 1.922-2.656 1.922-4.335v-41.527h0.041zM969.008 298.124c0-3.014-2.263-5.485-5.202-5.769l-24.313-2.127c-0.15-0.044-0.3-0.044-0.457-0.044-1.41 0-2.809 0.546-3.843 1.529-1.188 1.072-1.847 2.621-1.847 4.26v42.544c0 3.089 2.376 5.635 5.407 5.765l24.337 1.126c1.509 0.096 3.034-0.502 4.147-1.601 1.133-1.089 1.775-2.584 1.775-4.164v-41.52zM969.008 381.167c0-3.185-2.546-5.765-5.673-5.782l-24.3-0.096c-0.038 0-0.038 0-0.038 0-1.488 0-2.956 0.611-3.994 1.679-1.092 1.092-1.659 2.543-1.659 4.086v42.547c0 1.584 0.625 3.069 1.734 4.168 1.113 1.089 2.584 1.673 4.151 1.621l24.31-0.939c3.055-0.133 5.472-2.679 5.472-5.786v-41.499h-0.003zM969.008 464.217c0-1.618-0.679-3.13-1.833-4.243-1.068-0.98-2.427-1.522-3.86-1.522-0.15 0-0.321 0-0.451 0.034l-24.3 1.959c-2.956 0.246-5.219 2.751-5.219 5.769v42.557c0 1.642 0.679 3.205 1.905 4.318 1.225 1.072 2.826 1.604 4.451 1.393l24.296-2.98c2.86-0.355 5.014-2.826 5.014-5.731v-41.554h-0.003zM969.008 547.267c0-1.673-0.741-3.277-2.021-4.369-1.034-0.887-2.335-1.362-3.673-1.362-0.321 0-0.604 0-0.911 0.058l-24.33 4.017c-2.755 0.451-4.731 2.884-4.731 5.711v42.54c0 1.734 0.754 3.352 2.089 4.468 1.321 1.092 3.075 1.526 4.734 1.208l24.293-5.052c2.656-0.526 4.564-2.918 4.564-5.652v-41.564h-0.014v-0.003zM969.008 630.354c0-1.792-0.792-3.451-2.188-4.56-1.017-0.792-2.263-1.205-3.505-1.205-0.451 0-0.911 0.038-1.355 0.15l-24.296 6.069c-2.546 0.621-4.318 2.939-4.318 5.598v42.54c0 1.83 0.826 3.546 2.243 4.618 1.413 1.092 3.277 1.43 4.973 0.942l24.3-7.089c2.447-0.7 4.106-2.997 4.106-5.56v-41.506h0.041v0.003z" />
<glyph unicode="&#xe611;" glyph-name="photography" d="M762.262 358.311c-12.206-79.776-77.414-144.94-157.17-157.17-127.99-19.603-236.657 89.068-217.044 217.078 12.206 79.756 77.404 144.951 157.16 157.15 127.949 19.62 236.619-88.996 217.054-217.057zM1017.047 669.239v-561.889c0-42.417-34.379-76.841-76.776-76.841h-856.521c-42.407 0.024-76.797 34.403-76.797 76.797v561.934c0 42.438 34.379 76.817 76.817 76.817h7.356v17.097c0 13.8 11.199 24.989 25.009 24.989h118.351c13.79 0 24.989-11.189 24.989-24.989v-17.097h65.198l51.552 106.575c5.827 12.022 18.022 19.688 31.369 19.688h335.107c13.336 0 25.542-7.666 31.297-19.688l51.562-106.575h114.691c42.417-0.010 76.797-34.379 76.797-76.817zM227.912 661.873c0 29.047-23.559 52.599-52.61 52.599-29.037 0-52.61-23.549-52.61-52.599 0-29.037 23.569-52.61 52.61-52.61 29.047 0 52.61 23.569 52.61 52.61zM512.546 654.916c-100.574-22.296-181.719-103.451-204.025-204.035-44.288-199.598 129.621-373.453 329.206-329.226 100.574 22.316 181.705 103.489 204.025 204.066 44.244 199.564-129.632 373.439-329.206 329.196z" />
<glyph unicode="&#xe612;" glyph-name="product-01-icon" d="M624.104 414.14c27.518 0 49.814-22.108 49.814-49.364s-22.296-49.364-49.814-49.364c-27.501 0-49.794 22.108-49.794 49.364s22.292 49.364 49.794 49.364zM698.877 458.086c-0.218 0.498-0.498 0.843-0.737 1.311-0.157 0.625-0.348 1.26-0.553 2.051-0.379 1.57-1.413 4.775-2.557 8.137-1.133 3.536-2.509 6.912-4.082 10.95-3.29 7.888-7.533 17.405-13.67 27.638-6.124 10.223-13.896 21.275-23.675 32.328-9.708 11.087-21.62 21.999-35.604 31.795-6.97 4.946-14.52 9.516-22.548 13.636-8.021 4.175-16.572 7.844-25.521 10.95-8.929 3.106-18.309 5.509-27.962 7.182-9.622 1.713-19.555 2.7-29.542 2.748-9.994 0.085-20.053-0.536-29.959-2.137-2.499-0.345-4.966-0.802-7.414-1.311l-5.536-1.137-1.929-0.451-0.741-0.198c-4.079-1.103-7.656-1.956-12.803-3.567-4.905-1.423-9.387-3.007-13.817-4.594-4.458-1.618-8.881-3.427-13.24-5.311-8.745-3.809-17.251-8.189-25.412-13.070-16.261-9.905-31.055-21.862-43.431-35.191-12.397-13.295-22.46-27.74-30.174-42.121-7.731-14.387-13.309-28.638-17.217-41.964-3.912-13.329-6.352-25.689-7.871-36.622-1.464-10.933-2.328-20.449-2.584-28.242-0.3-7.81-0.321-13.926-0.208-18.070 0.068-4.137 0.119-6.359 0.119-6.359 0.287-12.793 10.458-23.467 23.562-24.19 13.749-0.758 25.528 9.67 26.276 23.313l0.044 0.877c0 0 0.113 1.877 0.3 5.431 0.174 3.553 0.577 8.724 1.318 15.244 0.655 6.533 1.864 14.339 3.632 23.17 1.785 8.793 4.369 18.5 8.059 28.621 3.724 10.1 8.533 20.589 14.698 30.809 6.182 10.209 13.868 20.070 23.033 28.935 9.148 8.895 19.855 16.654 31.717 23.112 6.001 3.113 12.138 6.12 18.64 8.619 3.256 1.249 6.523 2.458 9.868 3.526 3.386 1.068 6.752 2.123 9.837 2.881 2.768 0.829 7.257 1.778 11.206 2.69l3.956 0.587c1.611 0.259 3.209 0.498 4.82 0.604 6.431 0.741 12.844 0.741 19.128 0.379 6.301-0.338 12.506-1.294 18.545-2.7 6.014-1.352 11.875-3.181 17.497-5.458 11.278-4.318 21.603-10.312 30.686-16.998 9.144-6.639 16.937-14.152 23.59-21.569 6.656-7.441 12.001-14.957 16.186-21.914 4.195-6.946 7.451-13.24 9.834-18.569 1.116-2.656 2.256-5.171 2.857-6.932 0.71-1.915 1.362-3.174 2-5.274 1.225-3.656 1.884-5.605 1.884-5.605 5.745-16.951 23.931-26.829 41.568-22.108 0.362 0.085 0.71 0.246 1.068 0.348 0.672-2.12 1.345-4.222 1.983-6.345 7.359-25.016 12.38-52.204 8.745-78.257-3.174-22.897 32.116-32.775 35.328-9.673 6.571 46.981-4.499 94.857-23.194 138.066z" />
<glyph unicode="&#xe613;" glyph-name="product-02-icon" d="M704.928 565.589c-40.509 71.516-84.043 80.893-87.463 81.336h-38.581c0 0 5.926 13.52 2.045 10.284-6.465-5.39-19.849-20.391-28.105-29.935-10.568-8.742-21.975-13.551-34.13-14.152-30.659-1.43-57.45 21.897-61.556 25.668-9.274 10.564-18.845 21.374-18.845 21.374 1.072-5.287 1.987-9.663 2.744-13.268h-28.481c-66.297-5.328-86.822-67.543-88.088-69.984-25.679-44.431-24.518-132.632-24.518-235.482 0-6.636 5.396-12.012 12.018-12.012h25.679c6.629 0 12.046 5.373 12.046 12.012 0 73.462 11.063 139.244 21.791 170.295 0 0 42.23-115.408 24.31-230.175 0 0 2.304-3.372 4.017-4.55 1.417-0.963 48.746-23.497 106.813-23.497 33.485 0 81.237 7.567 115.992 22.426 2.56 1.068 6.065 5.649 6.065 5.649-23.132 66.57 24.108 229.291 24.108 229.291 10.462-30.836 21.453-96.375 21.453-169.441 0-6.636 5.335-12.012 12.001-12.012h25.648c6.656 0 12.035 5.373 12.035 12.012-0.007 101.291 3.11 182.019-18.999 224.16z" />
<glyph unicode="&#xe614;" glyph-name="product-03-icon" d="M295.509 663.327c-3.154-3.396-4.639-7.974-4.076-12.5l43.199-350.809c0.966-8.049 8.052-14.121 16.466-14.121h165.939c-0.87 2.311-1.628 4.669-2.345 7.038-2.396 7.926-4.028 16.258-4.898 24.962-0.509 4.963-0.768 10.086-0.768 15.309 0 45.984 28.962 87.934 54.777 124.542 1.929 2.809 3.929 5.509 5.861 8.182l23.31 184.791c0.553 4.536-0.928 9.103-4.035 12.554-3.157 3.447-7.656 5.414-12.397 5.414h-268.636c-4.745 0-9.288-1.966-12.397-5.362zM557.732 636.699l-13.674-108.155c-3.669-1.43-7.533-2.516-11.827-3.492-23.050-5.12-47.019-1.242-69.656 4.079-31.515 7.335-63.447 17.722-96.283 14.421l23.156-188.14c0.662-5.414-3.318-10.295-8.922-10.929l-7.605-0.898c-5.605-0.642-10.656 3.205-11.319 8.619l-22.801 185.139c-0.044 0-0.044 0-0.096-0.044l-12.24 99.345 231.267 0.055zM565.49 433.432c-25.6-39.086-50.343-88.279-36.273-136.021 12.756-43.223 53.292-70.103 99.239-70.103 57.586 0 104.24 38.499 104.24 105.929 0 67.451-104.185 181.914-104.185 181.914s-33.915-37.219-63.020-81.719z" />
<glyph unicode="&#xe615;" glyph-name="product-04-icon" d="M328.735 427.517h306.551c44.448 0 80.602 35.707 80.602 79.585 0 43.827-36.052 79.483-80.415 79.596-4.359 0.061-32.741-0.317-53.931-20.726-14.189-13.664-21.381-32.447-21.381-55.801 0-10.319 8.465-18.691 18.913-18.691 10.452 0 18.913 8.369 18.913 18.691 0 12.793 3.294 22.508 9.793 28.877 10.103 9.912 25.846 10.278 27.102 10.284 0.174-0.007 0.157 0 0.396 0 23.586 0 42.776-18.941 42.776-42.233 0-23.276-19.19-42.223-42.776-42.223h-306.551c-10.448 0-18.917-8.363-18.917-18.674 0.007-10.322 8.475-18.685 18.924-18.685zM328.735 500.692h146.121c44.442 0 80.602 35.707 80.602 79.596 0 43.817-36.052 79.483-80.415 79.575-4.413 0.072-32.751-0.317-53.931-20.705-14.189-13.67-21.388-32.447-21.388-55.818 0-10.312 8.475-18.681 18.924-18.681s18.913 8.363 18.913 18.681c0 12.8 3.294 22.525 9.786 28.877 10.11 9.923 25.853 10.284 27.112 10.301 0.174-0.007 0.154-0.007 0.396-0.007 23.579 0 42.759-18.947 42.759-42.223 0-23.286-19.183-42.233-42.759-42.233h-146.121c-10.448 0-18.917-8.363-18.917-18.671 0-10.332 8.468-18.691 18.917-18.691zM635.283 395.325h-306.551c-10.448 0-18.917-8.359-18.917-18.691 0-10.312 8.465-18.671 18.917-18.671h306.551c23.586 0 42.776-18.951 42.776-42.226 0-23.293-19.19-42.223-42.776-42.223-0.239 0-0.222 0-0.396-0.017-1.256 0.017-16.998 0.379-27.102 10.295-6.499 6.362-9.793 16.087-9.793 28.88 0 10.325-8.462 18.691-18.913 18.691-10.448 0-18.913-8.363-18.913-18.691 0-23.364 7.188-42.141 21.381-55.811 20.343-19.569 47.278-20.726 53.292-20.726 0.256 0 0.464 0 0.638 0 44.363 0.123 80.415 35.775 80.415 79.585-0.007 43.899-36.157 79.606-80.609 79.606z" />
<glyph unicode="&#xe616;" glyph-name="product-05-icon" d="M560.207 471.784v-17.507c0-6.81-5.533-12.329-12.363-12.329h-71.687c-6.827 0-12.377 5.519-12.377 12.329v17.507c0 6.803 5.55 12.319 12.377 12.319 7.776 0 14.087 6.277 14.087 14.036v149.897c0 6.533 5.318 11.827 11.878 11.827h19.75c6.56 0 11.889-5.294 11.889-11.827v-149.897c0-7.759 6.311-14.036 14.066-14.036v0c6.847 0 12.38-5.516 12.38-12.319zM327.82 494.172c-50.377-65.966-60.791-177.62-62.938-220.948-0.563-11.168 4.233-21.859 12.923-28.931 7.888-6.431 18.138-9.26 28.225-7.776l96.355 14.104c7.714 1.12 14.862 4.69 20.371 10.172l9.708 9.673c6.803 6.772 10.612 15.947 10.612 25.518v240.343c-0.007 39.813-51.746 40.984-115.255-42.155zM696.173 494.172c-63.502 83.139-115.244 81.968-115.244 42.155v-240.326c0-9.588 3.809-18.76 10.622-25.532l9.687-9.673c5.519-5.482 12.657-9.052 20.381-10.172l96.348-14.104c10.103-1.485 20.343 1.348 28.239 7.776 8.673 7.069 13.466 17.777 12.913 28.931-2.15 43.325-12.564 154.979-62.945 220.945z" />
<glyph unicode="&#xe617;" glyph-name="product-06-icon" d="M676.881 492.039l-37.553 55.955c-2.55 3.785-6.001 6.844-10.049 8.895 0 0-84.432 45.984-99.362 48.5-18.62 3.137-29.034-3.536-40.786-8.499-14.128-5.967-56.596-20.716-56.596-20.716l-42.906 36.56c-11.179 9.533-27.904 8.137-37.362-3.096-9.458-11.24-8.076-28.061 3.086-37.577l54.258-46.24c4.871-4.137 10.957-6.318 17.138-6.318 2.802 0 5.612 0.437 8.335 1.362l31.345 10.441-12.725-94.467c-0.57-4.222-2.103-16.152 0.915-25.948l30-96.724-24.044-91.962c-4.352-16.623 5.526-33.638 22.043-38.001 2.639-0.707 5.277-1.038 7.881-1.038 13.725 0 26.249 9.243 29.897 23.207l26.293 100.605c1.485 5.639 1.345 11.588-0.379 17.155l-15.138 48.845 34.396-15.483-14.657-72.636c-3.413-16.828 7.397-33.26 24.136-36.673 2.086-0.43 4.157-0.638 6.188-0.638 14.397 0 27.293 10.172 30.276 24.931l19.603 97.034c2.881 14.278-4.448 28.658-17.674 34.587l-53.897 24.259 13.141 97.498 26.549-13.455 33.707-50.2c5.123-7.639 13.483-11.738 21.982-11.738 5.12 0 10.278 1.464 14.831 4.567 12.141 8.24 15.333 24.812 7.127 37.007zM566.327 611.133c27.621 6.052 45.104 33.447 39.103 61.187-6.018 27.757-33.256 45.37-60.86 39.318-27.587-6.042-45.070-33.437-39.086-61.198 6.025-27.757 33.256-45.343 60.843-39.308z" />
<glyph unicode="&#xe618;" glyph-name="product-07-icon" d="M672.017 429.691c6.967 5.792 16.346 19.968 16.483 34.843 0.102 11.93-5.605 27.621-33.239 34.533-5.001 1.242-10.226 1.847-15.985 1.847-6.362 0-12.38-0.724-18.292-1.423-5.12-0.631-9.984-1.215-14.363-1.215-11.325 0-20.5 3.826-28.501 22.446-2.379 5.553-5.192 20.968 2.536 61.897 5.205 27.45 6.065 55.19-22.484 72.175-9.12 5.431-18.207 6.567-24.586 3.103-6.141-3.345-9.786-10.148-10.827-20.241-0.304-2.86-0.157-6.018 0.102-10.172 0.741-13.261 1.98-35.447-17.534-67.311-25.62-29.761-39.035-57.931-41.748-63.932-12.387-7.673-23.675-13.674-34.615-19.483-11.766-6.257-23.948-12.708-37.437-21.224l-48.596-0.792h-5.949v-170.67h-1.485v-12.602h53.412l26.395-8.158c40.482-22.467 90.412-27.174 125.174-27.174 20.931 0 35.294 1.69 37.792 2 2.12-0.154 4.137-0.239 6.001-0.239 12.947 0 24.067 4.017 33.068 11.967 15.346 13.551 20.105 34.413 21.484 43.295 13.414 5.687 22.245 14.326 26.259 25.706 4.929 14.001 1.137 28.225-1.809 35.929 11.756 6.844 19.033 16.002 21.688 27.191 5.448 22.914-10.865 44.691-11.069 44.964-0.529 0.604-1.287 1.652-1.874 2.741z" />
<glyph unicode="&#xe619;" glyph-name="product-08-icon" d="M698.235 634.778v3.567c0 11.844-9.742 21.518-21.658 21.518h-327.448c-11.916 0-21.658-9.67-21.658-21.518v-3.567c0-11.844 9.742-21.518 21.658-21.518h8.363c4.294 0 3.956-3.99 3.956-6.025 0-23.897 9.854-51.517 17.415-69.164 15.155-35.396 49.664-64.43 77.984-84.931 5.171-3.741 3.932-7.209 0.932-9.605-27.474-21.876-63.594-49.811-78.906-85.586-7.448-17.377-17.111-44.414-17.415-68.052-0.034-2.413 0.949-7.137-4.881-7.137h-7.448c-11.916 0-21.658-9.69-21.658-21.521v-3.584c0-11.831 9.742-21.521 21.658-21.521h327.448c11.913 0 21.658 9.69 21.658 21.521v3.584c0 11.831-9.742 21.521-21.658 21.521h-4.69c-8.588 0-7.755 6.376-7.67 9.708 0.604 22.067-5.932 47.169-15.483 66.034-21.262 41.946-54.794 68.635-75.448 84.070-4.482 3.359-4.929 7.499 0 10.878 21.292 14.544 54.19 42.103 75.448 84.060 10.172 20.087 16.913 47.251 15.278 70.284-0.123 1.86-0.259 5.465 4.605 5.465h7.963c11.909 0 21.654 9.673 21.654 21.518zM631.456 546.147c-19.777-39.028-51.535-66.949-79.138-83.767-1.655-1.017-4.83-3.519-4.83-10.499v-8.325c0-7.417 3.379-9.035 5.158-10.124 27.604-16.845 59.102-44.691 78.81-83.565 9.103-17.968 13.827-39.69 13.363-56.982-0.102-3.587 1.294-10.141-8.12-10.141h-247.897c-8.294 0-7.95 4.123-7.933 6.362 0.14 15.739 5.605 37.533 15.787 61.31 17.681 41.312 54.794 67.086 79.5 82.449 1.096 0.689 3.226 1.915 3.226 8.448v12.483c0 6.758-3.27 9.38-4.977 10.448-24.682 15.483-60.484 41.018-77.749 81.347-10.295 24.033-15.759 46.032-15.787 61.802-0.007 2.062 0.259 5.871 4.864 5.871h253.621c5.12 0 5.069-3.843 5.239-5.888 1.451-17.876-3.273-41.755-13.138-61.228zM507.785 420.516l-84.405-104.946c-2.785-3.468-1.417-6.294 3.052-6.294h172.834c4.468 0 5.847 2.826 3.055 6.294l-84.398 104.946c-2.792 3.468-7.345 3.468-10.138 0zM507.102 469.292c3.164-3.137 8.335-3.137 11.489 0l42.465 42.069c3.157 3.137 2.086 5.697-2.379 5.697h-91.655c-4.468 0-5.536-2.56-2.379-5.697l42.458-42.069z" />
<glyph unicode="&#xe61a;" glyph-name="Search-icon" d="M994.12 85.405l-219.522 219.341c-1.167 1.256-2.516 1.973-3.772 3.147 43.148 65.529 68.407 143.916 68.407 228.192 0 229.407-185.986 415.396-415.351 415.396-229.403 0-415.348-185.989-415.348-415.396 0-229.362 185.945-415.259 415.307-415.259 84.364 0 162.707 25.17 228.328 68.318 1.079-1.167 1.799-2.608 3.058-3.772l219.43-219.426c32.99-32.993 86.388-32.993 119.467 0 32.898 32.983 32.898 86.381-0.003 119.46zM423.885 264.742c-149.897 0-271.343 121.446-271.343 271.343s121.446 271.387 271.343 271.387 271.343-121.491 271.343-271.387-121.446-271.343-271.343-271.343z" />
<glyph unicode="&#xe61b;" glyph-name="close" d="M12.414-58.324c6.028-6.062 13.947-9.056 21.832-9.056 7.916 0 15.834 2.993 21.862 9.056l459.25 459.247 459.25-459.247c6.062-6.062 13.984-9.056 21.9-9.056 7.919 0 15.766 2.993 21.832 9.056 12.052 12.056 12.052 31.604 0 43.732l-459.254 459.206 459.254 459.278c12.052 12.056 12.052 31.638 0 43.694-12.056 12.056-31.601 12.056-43.732 0l-459.25-459.244-459.25 459.244c-12.056 12.056-31.638 12.056-43.694 0s-12.056-31.638 0-43.694l459.254-459.281-459.254-459.203c-12.056-12.128-12.056-31.676 0-43.732z" />
<glyph unicode="&#xe61c;" glyph-name="view-large" d="M1010.9 20.535l-403.859 403.852c96.611 131.202 85.92 317.143-32.73 435.828-130.809 130.789-343.671 130.789-474.498 0-130.823-130.86-130.823-343.736 0-474.525 118.651-118.685 304.609-129.341 435.797-32.73l403.893-403.855c19.726-19.726 51.668-19.726 71.397 0 19.726 19.692 19.726 51.698 0 71.431zM502.897 457.117c-91.436-91.471-240.213-91.471-331.667 0-91.453 91.436-91.453 240.193 0 331.629 91.453 91.471 240.23 91.471 331.667 0 91.416-91.433 91.416-240.193 0-331.629zM479.526 658.941c18.865 0 34.164-15.295 34.164-34.164 0-18.831-15.316-34.147-34.164-34.147h-110.148v-110.148c0-18.883-15.295-34.164-34.164-34.164s-34.164 15.295-34.164 34.164v110.148h-110.148c-18.865 0-34.164 15.316-34.164 34.147 0 18.865 15.295 34.164 34.164 34.164h110.148v110.148c0 18.865 15.295 34.161 34.164 34.161s34.164-15.295 34.164-34.161v-110.148h110.148z" />
</font>
</defs>
</svg>
